Ссылка на приватное зеркало всего за 1$. Внимание количество ограничено!!!

iTunes

1+1

iTunes

мы

WEB-DL

1

iTunes

Чернобыль

iTunes

Ральф против интернета

Лицензия

ПШазам

Лицензия

Оно 2

Лицензия

30
pack

Вам бонус

ВАЖНО

!!Акция!!

Alien_RageХит недели

RePack

Resident Evil 21

ИГРА 18+

pack

RePack

jed

!!Акция!!

Alien_Rage

RePack

fifa19

RePack

Assassins Creed: Odyssey

RePack

NEED FOR SPEED™ PAYBACK

3 сезон

9 сезон

Бесстыжие 9 сезон

Все сериалы

все сериалы на PB.wtf

RePack

FAR CRY 5
Ребята, катастрофически не хватает 1900р. для оплаты серверов за Октябрь (всвязи с блокировками трафик упал в 3 раза), 1-2р., выручайте.
  

В тумане (Сергей Лозница) [2012, драма, военный, история, DVD9] R2 pb.wtf

В тумане через торрент pb.wtf

Размер: 7.45 GB | Добавлен: 6 лет 6 мес. назад | Торрент скачан:74 раза
Скачать  

31-05-2013 19:42 В тумане Скачать торрент  


В тумане
Страна: Россия, Германия, Нидерланды, Латвия, Беларусь
Студия: Беларусьфильм, Lemming Film, Rija Films, ZDF/Arte
Жанр: драма, военный, история
Год выпуска: 2012
Мировая премьера: 25 мая 2012
Российская премьера: 22 ноября 2012, «GP Group»
Продолжительность: 02:02:55
Перевод: Оригинал [Лицензия]
Cубтитры: английские, немецкие
Оригинальная аудиодорожка: русский
Режиссер: Сергей Лозница
В ролях: Владимир Свирский, Владислав Абашин, Сергей Колесов, Никита Перемотов, Юлия Пересильд, Кирилл Петров, Дмитрий Колосов, Степан Богданов, Дмитрий Быковский, Влад Иванов
Описание: Действие исторической драмы происходит в 1942 году в оккупированной немцами Белоруссии. Путевого обходчика Сущеню ложно обвиняют в сотрудничестве с оккупантами. Два партизана приезжают на хутор к Сущене, чтобы совершить расправу. В надежде доказать свою невиновность Сущеня пытается сделать моральный выбор в аморальных обстоятельствах.
Бонусы: Трейлеры

Качество: DVD9 R2
Формат: DVD-Video
Видео кодек: MPEG2
Аудио кодек: AC3
Видео: PAL 16:9 (720x576(0.636)) MPEG Video, 25,000 кадр/сек, 6598 Кбит/сек
Аудио #1: Deutsch (Dolby AC3, 6 ch) 448 Кбит/сек, 48,0 КГц
Аудио #2: Russian (Dolby AC3, 6 ch) 448 Кбит/сек, 48,0 КГц
Аудио #3: Deutsch (Dolby AC3, 2 ch) 256 Кбит/сек, 48,0 КГц
Аудио #4: Russian (Dolby AC3, 2 ch) 256 Кбит/сек, 48,0 КГц



Title: V.tumane.2012.DVD9.R2
Size: 7.45 Gb ( 7 816 320,00 KBytes ) - DVD-9
Enabled regions: 1, 2, 3, 4, 5, 6, 7, 8

VTS_01 :
Play Length: 00:00:41
Video: PAL 16:9 (720x576) VBR, Auto Letterboxed
Audio:
Deutsch (Dolby AC3, 2 ch)

VTS_02 :
Play Length: 00:01:36
Video: PAL 16:9 (720x576) VBR, Auto Letterboxed
Audio:
Deutsch (Dolby AC3, 2 ch)

VTS_03 :
Play Length: 00:02:11
Video: PAL 16:9 (720x576) VBR, Auto Letterboxed
Audio:
Deutsch (Dolby AC3, 2 ch)

VTS_04 :
Play Length: 00:01:59
Video: PAL 16:9 (720x576) VBR, Auto Letterboxed
Audio:
Deutsch (Dolby AC3, 2 ch)

VTS_05 :
Play Length: 00:02:18
Video: PAL 16:9 (720x576) VBR, Auto Letterboxed
Audio:
Deutsch (Dolby AC3, 2 ch)

VTS_06 :
Play Length: 00:02:06
Video: PAL 4:3 (720x576) VBR
Audio:
Deutsch (MPEG1, 2 ch)

VTS_07 :
Play Length: 00:02:41
Video: PAL 16:9 (720x576) VBR, Auto Letterboxed
Audio:
Deutsch (Dolby AC3, 2 ch)

VTS_08 :
Play Length: 00:02:17
Video: PAL 16:9 (720x576) VBR, Auto Letterboxed
Audio:
Deutsch (Dolby AC3, 2 ch)

VTS_09 :
Play Length: 02:02:55+{02:02:55}
Video: PAL 16:9 (720x576) VBR, Auto Letterboxed
Audio:
Deutsch (Dolby AC3, 6 ch)
Russian (Dolby AC3, 6 ch)
Deutsch (Dolby AC3, 2 ch)
Russian (Dolby AC3, 2 ch)
Subtitles:
Deutsch
English

* Menus Information *

VIDEO_TS Menu
Video:
NTSC 4:3 (720x480) VBR
Auto Pan&Scan, Auto Letterboxed
English Language Unit :
Title Menu

VTS_01 Menu
Video:
PAL 16:9 (720x576) VBR
Auto Letterboxed
English Language Unit :
Root Menu

VTS_02 Menu
Video:
PAL 4:3 (720x576) VBR
English Language Unit :
Root Menu

VTS_03 Menu
Video:
PAL 4:3 (720x576) VBR
English Language Unit :
Root Menu

VTS_04 Menu
Video:
PAL 4:3 (720x576) VBR
English Language Unit :
Root Menu

VTS_05 Menu
Video:
PAL 4:3 (720x576) VBR
English Language Unit :
Root Menu

VTS_06 Menu
Video:
PAL 4:3 (720x576) VBR
English Language Unit :
Root Menu

VTS_07 Menu
Video:
PAL 4:3 (720x576) VBR
English Language Unit :
Root Menu

VTS_08 Menu
Video:
PAL 4:3 (720x576) VBR
English Language Unit :
Root Menu

VTS_09 Menu
Video:
PAL 4:3 (720x576) VBR
English Language Unit :
Root Menu
Общее
Полное имя : M:Новинки 2013V.tumane.2012.DVD9.R2VIDEO_TSVTS_09_3.VOB
Формат : MPEG-PS
Размер файла : 1024 Мбайт
Продолжительность : 17 м.
Режим общего битрейта : Переменный
Общий поток : 8169 Кбит/сек

Видео
Идентификатор : 224 (0xE0)
Формат : MPEG Video
Версия формата : Version 2
Профиль формата : Main@Main
Параметр BVOP формата : Да
Параметр матрицы формата : Выборочная
Параметр GOP формата : Variable
Продолжительность : 17 м.
Вид битрейта : Переменный
Битрейт : 6598 Кбит/сек
Максимальный битрейт : 9800 Кбит/сек
Ширина : 720 пикселей
Высота : 576 пикселей
Соотношение сторон : 16:9
Частота кадров : 25,000 кадров/сек
Стандарт вещания : PAL
Цветовое пространство : YUV
Субдискретизация насыщенности : 4:2:0
Битовая глубина : 8 бит
Тип развёртки : Чересстрочная
Порядок развёртки : Нижнее поле первое
Метод сжатия : С потерями
Бит/(Пиксели*Кадры) : 0.636
TimeCode_FirstFrame : 01:39:47:07
TimeCode_Source : Group of pictures header
Размер потока : 827 Мбайт (81%)

Аудио #1
Идентификатор : 189 (0xBD)-128 (0x80)
Формат : AC-3
Формат/Информация : Audio Coding 3
Расширение режима : CM (complete main)
Параметр Endianness формата : Big
Режим смешивания : DVD-Video
Продолжительность : 17 м.
Вид битрейта : Постоянный
Битрейт : 448 Кбит/сек
Каналы : 6 каналов
Расположение каналов : Front: L C R, Side: L R, LFE
Частота : 48,0 КГц
Битовая глубина : 16 бит
Метод сжатия : С потерями
Задержка видео : -240 мс.
Размер потока : 56,2 Мбайт (5%)

Аудио #2
Идентификатор : 189 (0xBD)-129 (0x81)
Формат : AC-3
Формат/Информация : Audio Coding 3
Расширение режима : CM (complete main)
Параметр Endianness формата : Big
Режим смешивания : DVD-Video
Продолжительность : 17 м.
Вид битрейта : Постоянный
Битрейт : 448 Кбит/сек
Каналы : 6 каналов
Расположение каналов : Front: L C R, Side: L R, LFE
Частота : 48,0 КГц
Битовая глубина : 16 бит
Метод сжатия : С потерями
Задержка видео : -240 мс.
Размер потока : 56,2 Мбайт (5%)

Аудио #3
Идентификатор : 189 (0xBD)-130 (0x82)
Формат : AC-3
Формат/Информация : Audio Coding 3
Расширение режима : CM (complete main)
Параметр Endianness формата : Big
Режим смешивания : DVD-Video
Продолжительность : 17 м.
Вид битрейта : Постоянный
Битрейт : 256 Кбит/сек
Каналы : 2 канала
Расположение каналов : Front: L R
Частота : 48,0 КГц
Битовая глубина : 16 бит
Метод сжатия : С потерями
Задержка видео : -208 мс.
Размер потока : 32,1 Мбайт (3%)

Аудио #4
Идентификатор : 189 (0xBD)-131 (0x83)
Формат : AC-3
Формат/Информация : Audio Coding 3
Расширение режима : CM (complete main)
Параметр Endianness формата : Big
Режим смешивания : DVD-Video
Продолжительность : 17 м.
Вид битрейта : Постоянный
Битрейт : 256 Кбит/сек
Каналы : 2 канала
Расположение каналов : Front: L R
Частота : 48,0 КГц
Битовая глубина : 16 бит
Метод сжатия : С потерями
Задержка видео : -208 мс.
Размер потока : 32,1 Мбайт (3%)

Текст #1
Идентификатор : 189 (0xBD)-32 (0x20)
Формат : RLE
Формат/Информация : Run-length encoding
Режим смешивания : DVD-Video

Текст #2
Идентификатор : 189 (0xBD)-33 (0x21)
Формат : RLE
Формат/Информация : Run-length encoding
Режим смешивания : DVD-Video




pb.wtf



Скачать В тумане через торрент http://i031.radikal.ru/1305/c3/74443eaa9782.jpg Скачать фильм В тумане через торрент бесплантно в хорошем качестве Описание: Действие исторической драмы происходит в 1942 году в оккупированной немцами Белоруссии. Путевого обходчика Сущеню ложно обвиняют ... 8.8 10 4
Info! Золотая раздача, скачанное не засчитывается.
Торрент: Зарегистрирован [2013-05-31 19:42] · скачан: 74 раз
Статус: √ проверено
Размер: 7.45 GB
Как cкачать? Как скачать В тумане через торрент | qTorrent

% Раздел Тема Автор DL S | L
S.T.A.L.K.E.R. [ 3.12 GB ] S.T.A.L.K.E.R.: Shadow of Chernobyl - Первые Дни Зоны: Создание в тумане [Repack RUS] от SeregA-Lus SeregA_Lus Скачать
4 | 0
Фильмы (DVD фильмы) [ 6.67 GB ] В электрическом тумане / In the Electric Mist [2009 DVD9] R5 «CP-Digital» voovaz Скачать
1 | 0

28-11-2019 20:33  

Отключить всю рекламу на сайте

    Дорогой пользователь! Огромная просьба, поблагодарите релизера, оцените раздачу и оставьте свои комментарий, если Вы скачали В тумане через торрент бесплатно! Внесите свою лепту в развитие PiratBit!
    Комментировать посты могут только пользователи прошедшие не сложную регистрацию
    Показать сообщения:    

    В тумане через торрент
    Скачать бесплатно В тумане
    В тумане скачать торрент
    В тумане смотреть онлайн
    Cкачать фильм В тумане бесплатно
    В тумане скачать торрент в хорошем качестве
    В тумане смотреть онлайн бесплатно в хорошем качестве


    Вы не можете начинать темы
    Вы не можете отвечать на сообщения
    Вы не можете редактировать свои сообщения
    Вы не можете удалять свои сообщения
    Вы не можете голосовать в опросах
    Вы не можете прикреплять файлы к сообщениям
    Вы можете скачивать файлы