Ссылка на приватное зеркало всего за 1$. Внимание количество ограничено!!!

iTunes

1+1

iTunes

мы

WEB-DL

1

iTunes

Чернобыль

iTunes

Ральф против интернета

Лицензия

ПШазам

Лицензия

Оно 2

Лицензия

30
pack

Вам бонус

ВАЖНО

!!Акция!!

Alien_RageХит недели

RePack

Resident Evil 21

ИГРА 18+

pack

RePack

jed

!!Акция!!

Alien_Rage

RePack

fifa19

RePack

Assassins Creed: Odyssey

RePack

NEED FOR SPEED™ PAYBACK

3 сезон

9 сезон

Бесстыжие 9 сезон

Все сериалы

все сериалы на PB.wtf

RePack

FAR CRY 5
Ребята, катастрофически не хватает 1900р. для оплаты серверов за Октябрь (всвязи с блокировками трафик упал в 3 раза), 1-2р., выручайте.
  

Паркер / Parker (Тейлор Хэкфорд / Taylor Hackford) [2013, США, боевик, триллер, криминал, HDRip] AVO pb.wtf

Паркер через торрент pb.wtf

Размер: 1.46 GB | Добавлен: 6 лет 6 мес. назад | Торрент скачан:543 раза
Скачать  

01-06-2013 10:02 Паркер Скачать торрент  

Паркер / Parker
Страна: США
Жанр: боевик, триллер, криминал
Год выпуска: 2013
Продолжительность: 01:58:40
Перевод: Авторский (одноголосый, закадровый) - Гаврилов
Cубтитры: нет

Режиссер: Тейлор Хэкфорд / Taylor Hackford

В ролях: Джейсон Стэтхем, Дженнифер Лопез, Ник Нолти, Майкл Чиклис, Клифтон Коллинз мл., Уенделл Пирс, Эмма Бут, Пэтти ЛюПон, Дэниэл Бернхард, Кирк Балц

Описание: Главный герой — профессиональный вор, руководствующийся собственным моральным кодексом, но способный запросто отправить на тот свет любого, кто перейдет ему дорогу.

Качество видео: HDRip
Формат видео: AVI
Видео кодек: XviD
Аудио кодек: AC3
Видео: 720x304 (2.37:1), 23.976 fps, XviD build 50 ~1300 kbps avg, 0.25 bit/pixel
Аудио: 48 kHz, AC3 Dolby Digital, 3/2 (L,C,R,l,r) + LFE ch, ~448.00 kbps avg
Раздача от:
D:Parker.2013.HDRip.AVO.[YTN]_by_dexter_lex.avi
General
Complete name : D:Parker.2013.HDRip.AVO.[YTN]_by_dexter_lex.avi
Format : AVI
Format/Info : Audio Video Interleave
File size : 1.46 GiB
Duration : 1h 58mn
Overall bit rate : 1 758 Kbps
Writing application : VirtualDubMod 1.5.10.3 | www.virtualdub-fr.org || (build 2550/release)
Writing library : VirtualDubMod build 2550/release
Video #0
ID : 0
Format : MPEG-4 Visual
Format profile : Advanced Simple@L5
Format settings, BVOP : 1
Format settings, QPel : No
Format settings, GMC : No warppoints
Format settings, Matrix : Custom
Codec ID : XVID
Codec ID/Hint : XviD
Duration : 1h 58mn
Bit rate : 1 300 Kbps
Width : 720 pixels
Height : 304 pixels
Display aspect ratio : 2.37:1
Frame rate : 23.976 fps
Color space : YUV
Chroma subsampling : 4:2:0
Bit depth : 8 bits
Scan type : Progressive
Compression mode : Lossy
Bits/(Pixel*Frame) : 0.248
Stream size : 1.08 GiB (74%)
Writing library : XviD 1.2.1 (UTC 2008-12-04)
Audio #1
ID : 1
Format : AC-3
Format/Info : Audio Coding 3
Mode extension : CM (complete main)
Format settings, Endianness : Big
Codec ID : 2000
Duration : 1h 58mn
Bit rate mode : Constant
Bit rate : 448 Kbps
Channel(s) : 6 channels
Channel positions : Front: L C R, Side: L R, LFE
Sampling rate : 48.0 KHz
Bit depth : 16 bits
Compression mode : Lossy
Stream size : 380 MiB (25%)
Alignment : Aligned on interleaves
Interleave, duration : 42 ms (1.00 video frame)
Interleave, preload duration : 512 ms
http://multi-up.com/871367
pb.wtf



Скачать Паркер через торрент http://i48.fastpic.ru/big/2013/0506/17/cdf05dc5aeeb51838c6f46e70a695b17.jpg Скачать фильм Паркер через торрент бесплантно в хорошем качестве Описание: Главный герой — вор, руководствующийся собственным моральным кодексом, но способный запросто отправить на тот ... 9.9 10 16
Info! Золотая раздача, скачанное не засчитывается.
Торрент: Зарегистрирован [2013-06-01 10:02] · скачан: 543 раз
Статус: √ проверено
Размер: 1.46 GB
Как cкачать? Как скачать Паркер через торрент | qTorrent

% Раздел Тема Автор DL S | L
Фильмы [HD 720p, 1080p] (Хороший звук DUB, MVO) [ 9.58 GB ] Паркер / Parker [2013 BDRip 1080p] DUB 2xAVO Леонид Ильич Скачать
1 | 0
Фильмы с авторской озвучкой [ 749 MB ] Паркер / Parker [2013 HDRip] AVO dexter lex Скачать
1 | 0

28-11-2019 20:33  

Отключить всю рекламу на сайте

10-09-2013 15:11 Паркер Скачать торрент  

отличный фильм, стЭтхем как всегда в центреpb.wtf



    Дорогой пользователь! Огромная просьба, поблагодарите релизера, оцените раздачу и оставьте свои комментарий, если Вы скачали Паркер через торрент бесплатно! Внесите свою лепту в развитие PiratBit!
    Комментировать посты могут только пользователи прошедшие не сложную регистрацию
    Показать сообщения:    

    Паркер через торрент
    Скачать бесплатно Паркер
    Паркер скачать торрент
    Паркер смотреть онлайн
    Cкачать фильм Паркер бесплатно
    Паркер скачать торрент в хорошем качестве
    Паркер смотреть онлайн бесплатно в хорошем качестве


    Вы не можете начинать темы
    Вы не можете отвечать на сообщения
    Вы не можете редактировать свои сообщения
    Вы не можете удалять свои сообщения
    Вы не можете голосовать в опросах
    Вы не можете прикреплять файлы к сообщениям
    Вы можете скачивать файлы