Ссылка на приватное зеркало всего за 1$. Внимание количество ограничено!!!

iTunes

1+1

iTunes

мы

WEB-DL

1

iTunes

Чернобыль

iTunes

Ральф против интернета

Лицензия

ПШазам

Лицензия

Оно 2

Лицензия

30
pack

Вам бонус

ВАЖНО

!!Акция!!

Alien_RageХит недели

RePack

Resident Evil 21

ИГРА 18+

pack

RePack

jed

!!Акция!!

Alien_Rage

RePack

fifa19

RePack

Assassins Creed: Odyssey

RePack

NEED FOR SPEED™ PAYBACK

3 сезон

9 сезон

Бесстыжие 9 сезон

Все сериалы

все сериалы на PB.wtf

RePack

FAR CRY 5
Ребята, катастрофически не хватает 1900р. для оплаты серверов за Октябрь (всвязи с блокировками трафик упал в 3 раза), 1-2р., выручайте.
  

Дьявол в деталях / The Devil's in the Details (Уэймон Бун / Waymon Boone) [2013, триллер, HDRip] VO [den904] pb.wtf

Дьявол в деталях через торрент pb.wtf

Размер: 1.46 GB | Добавлен: 6 лет 6 мес. назад | Торрент скачан:464 раза
Скачать  

01-06-2013 16:55 Дьявол в деталях Скачать торрент  

Дьявол в деталях / The Devil's in the Details


  • Год выпуска:2013
  • Страна: США
  • Жанр:триллер
  • Продолжительность: 01:40:17
  • Перевод:Любительский (одноголосый) [den904], перевод [Janetta], работа со звуком [spee2k]

    • Режиссер: Уэймон Бун / Waymon Boone
    • Продюсер: Джастин Финни / Justin Finney, Брайан С. Секстон / Bryan S. Sexton, Кристофер Бренч / Christopher Branch, Jonathan Steers, Cesar Delucia
    • Сценарий:Уэймон Бун / Waymon Boone

  • В ролях:Рэй Лиотта (Dr. Robert Michaels), Эмилио Ривера (Bill Duffy), Джоэль Томпсон (Thomas Conrad), Рэймонд Дж. Бэрри (Richard Conrad), Ноэль Гульеми (Guzzo), Лэйн Гаррисон (Trevor), Jake Jacobson (Corbin), Тина Ивлев (Jennifer), Артуро дель Пуэрто (Frank), Альберт Такур (Hutchens), Дженна Линг (Selina), Ши Не Нилсон (Olivia)
    • Описание:
      Семь минут в Ногалисе, штат Аризона. Жизнь бывшего военнослужащего Томаса Конрада кардинально меняется, когда его похищают члены наркокартеля, чтобы с его помощью переправить наркотики через границу.

  • Рейтинг
    imdb.com: 3.60 (353)
    MPAA: R - Лицам до 17 лет обязательно присутствие взрослого
    • Качество: HDRip
    • Формат: AVI
    • Видео кодек: XviD
    • Аудио кодек: AC3
    • Видео: XviD; 720x304 (2.35:1); 1621 Kbps; 23,976 fps; 0,309 bpp
    • Аудио: AC3; 448 Kbps; CBR; 6 ch; 16 bit, 48 kHz

    General
    Complete name : D:ТорентыDyavol.v.detalyah.2013.L1.HDRip.1400MB.avi
    Format : AVI
    Format/Info : Audio Video Interleave
    File size : 1.46 GiB
    Duration : 1h 40mn
    Overall bit rate : 2 079 Kbps
    Writing application : VirtualDubMod 1.5.10.2 (build 2540/release)
    Writing library : VirtualDubMod build 2540/release

    Video
    ID : 0
    Format : MPEG-4 Visual
    Format profile : Advanced Simple@L5
    Format settings, BVOP : 2
    Format settings, QPel : No
    Format settings, GMC : No warppoints
    Format settings, Matrix : Default (MPEG)
    Codec ID : XVID
    Codec ID/Hint : XviD
    Duration : 1h 40mn
    Bit rate : 1 621 Kbps
    Width : 720 pixels
    Height : 304 pixels
    Display aspect ratio : 2.35:1
    Frame rate : 23.976 fps
    Color space : YUV
    Chroma subsampling : 4:2:0
    Bit depth : 8 bits
    Scan type : Progressive
    Compression mode : Lossy
    Bits/(Pixel*Frame) : 0.309
    Stream size : 1.14 GiB (78%)
    Writing library : XviD 1.2.1 (UTC 2008-12-04)

    Audio
    ID : 1
    Format : AC-3
    Format/Info : Audio Coding 3
    Mode extension : CM (complete main)
    Codec ID : 2000
    Duration : 1h 40mn
    Bit rate mode : Constant
    Bit rate : 448 Kbps
    Channel(s) : 6 channels
    Channel positions : Front: L C R, Side: L R, LFE
    Sampling rate : 48.0 KHz
    Bit depth : 16 bits
    Compression mode : Lossy
    Stream size : 321 MiB (22%)
    Alignment : Split accross interleaves
    Interleave, duration : 42 ms (1.00 video frame)
    Interleave, preload duration : 500 ms
    Сценарий: Уэймон Бун / Waymon Boone
    Продюсер: Джастин Финни / Justin Finney, Брайан С. Секстон / Bryan S. Sexton, Кристофер Бренч / Christopher Branch, Jonathan Steers, Cesar Delucia
    Оператор: Кевин МакМахон / Kevin McMahon
    Композитор: Дэнни Кок / Danny Cocke

    Мировая премьера: 12 марта 2013


    Скриншоты
    © Оформление by Vetalpb.wtf



  • Скачать Дьявол в деталях через торрент http://i47.fastpic.ru/big/2013/0505/55/ff0fbc48f98fa52c0fc275351a996d55.png Скачать фильм Дьявол в деталях через торрент бесплантно в хорошем качестве Описание:Семь минут в Ногалисе, штат Аризона. Жизнь бывшего военнослужащего Томаса Конрада кардинально меняется, когда его похищают члены ... 9.5 10 18
    Info! Золотая раздача, скачанное не засчитывается.
    Торрент: Зарегистрирован [2013-06-01 16:55] · скачан: 464 раз
    Статус: √ проверено
    Размер: 1.46 GB
    Как cкачать? Как скачать Дьявол в деталях через торрент | qTorrent

    28-11-2019 20:33  

    Отключить всю рекламу на сайте

    05-06-2013 17:47 Дьявол в деталях Скачать торрент  

    кто смотрел? как фильм?pb.wtf



    08-06-2013 16:14 Дьявол в деталях Скачать торрент  

    jevgen1980 писал(а):

    кто смотрел? как фильм?

    3,6 имдб как бы намекает..))pb.wtf



      Дорогой пользователь! Огромная просьба, поблагодарите релизера, оцените раздачу и оставьте свои комментарий, если Вы скачали Дьявол в деталях через торрент бесплатно! Внесите свою лепту в развитие PiratBit!
      Комментировать посты могут только пользователи прошедшие не сложную регистрацию
      Показать сообщения:    

      Дьявол в деталях через торрент
      Скачать бесплатно Дьявол в деталях
      Дьявол в деталях скачать торрент
      Дьявол в деталях смотреть онлайн
      Cкачать фильм Дьявол в деталях бесплатно
      Дьявол в деталях скачать торрент в хорошем качестве
      Дьявол в деталях смотреть онлайн бесплатно в хорошем качестве


      Вы не можете начинать темы
      Вы не можете отвечать на сообщения
      Вы не можете редактировать свои сообщения
      Вы не можете удалять свои сообщения
      Вы не можете голосовать в опросах
      Вы не можете прикреплять файлы к сообщениям
      Вы можете скачивать файлы