Всегда рабочее зеркало без VPN и Proxy просто перед .vidak.icu напиши любое слово или цифру, Пример http://9jv6.vidak.icu

MVO

2 сезон

2 сезон

1

1 сезон

iTunes

2 сезон

13

1 сезон

Распродажа

pack

Рекомендуем

Пиратка

30

ВАЖНО

RePack

MK11

RePack

jed

RePack

fifa19

RePack

RDR2

RePack

NEED FOR SPEED™ PAYBACK

Кинопоиск HD

6 сезон

 Острые козырьки 6 сезон

Все сериалы

все сериалы на PB.wtf

RePack

FAR CRY 5

Anonymous, нам критически не хватает 5601 руб. на оплату серверов и переферии за Апрель, помоги нам пожалуйста, вся надежда только на тебя. В благодарность мы отключим тебе всю рекламу на сайте!

×
  
Magnet ссылка

Апартаменты 1303 / Apartment 1303 3D (Мишель Таверна / Michael Taverna) [2012 , ужасы, триллер, BDRip 1080p] OverUnder / Вертикальная стереопара pb.wtf

Апартаменты 1303 через торрент pb.wtf

Размер: 5.63 GB | Добавлен: 8 лет 11 мес. назад | Торрент скачан:502 раза
Смотреть онлайн Апартаменты 1303 | Скачать    Ребята, помогите собрать деньги на оплату серверов!!!

01-06-2013 19:45 Апартаменты 1303 Скачать торрент  

Апартаменты 1303 / Apartment 1303 3D


  • Год выпуска:2012
  • Страна: США, Канада
  • Жанр:ужасы, триллер
  • Продолжительность: 01:25:13
  • Перевод:Профессиональный (полное дублирование), Лицензия
    • Режиссер: Мишель Таверна / Michael Taverna
    • Продюсер: Синди Нельсон-Муллен / Cindy Nelson-Mullen, Мишель Таверна / Michael Taverna, Амир Фавац / Ameer Fawaz, Паола Лоренци / Paola Lorenzi, Дэнни Роснер / Danny Rosner
    • Сценарий:Мишель Таверна / Michael Taverna, Кеи Оиши / Kei Oishi

  • В ролях:Миша Бартон (Lara Slate), Ребекка Де Морнэй (Maddie Slate), Джулианна Мишель (Janet Slate), Кори Севьер (Mark Taylor), Джон Дил (Detective), Джиллиан Олтмэн (Mover), Кэтерин Клилэнд (Waitress), Франческо Джаннини (Journalist), Кэтлин Мэкки (Jennifer Logan), Джессика Малька (Lidia), Гордон Мастен (O'Neil), Мэдисон МакАлир (Emily)
    • Описание:
      В этой квартире всегда рады новым жильцам. Но никто не знает о легенде проклятия, которое здесь обитает. Говорят в апартаментах N1303, живут призраки матери и дочери, погибшие насильственной смертью. Не найдя покоя, духи мертвых жаждят отомстить своим убийцам. Каждый, кто переступает порог комнаты ужаса, становится их заложником. И еще никому не удалось вырваться из плена смерти...

  • Рейтинг
    kinopoisk.ru: 2.922 (1985)
    imdb.com: 3.60 (246)
    • Качество: BDRip 1080p
    • Порядок ракурсов: левый ракурс первый
    • Формат: MKV
    • Видео кодек: x264
    • Аудио кодек: AC3
    • Видео: AVC; 1920x1080 (16:9); 8240 Kbps; 23,976 fps; 0,166 bpp
    • Аудио №1: русский; AC3; 384 Kbps; CBR; 6 ch; 16 bit, 48 kHz
      Аудио №2: английский; AC3; 640 Kbps; CBR; 6 ch; 16 bit, 48 kHz [/Английский/ ]

    General
    Unique ID : 183359853338295325123846950504868535808 (0x89F1D2BE2B947184922BF0C05632DE00)
    Complete name : D:ТорентыApartment.1303.3D.mkv
    Format : Matroska
    Format version : Version 3 / Version 2
    File size : 5.63 GiB
    Duration : 1h 25mn
    Overall bit rate : 9 453 Kbps
    Encoded date : UTC 2013-05-31 09:18:02
    Writing application : mkvmerge v5.7.0 ('The Whirlwind') built on Aug 7 2012 14:11:40
    Writing library : libebml v1.2.3 + libmatroska v1.3.0

    Video
    ID : 1
    Format : AVC
    Format/Info : Advanced Video Codec
    Format profile : High@L4.1
    MultiView_Count : 2
    MultiView_Layout : Top-Bottom (left eye first)
    Format settings, CABAC : Yes
    Format settings, ReFrames : 4 frames
    Codec ID : V_MPEG4/ISO/AVC
    Duration : 1h 25mn
    Bit rate : 8 240 Kbps
    Width : 1 920 pixels
    Height : 1 080 pixels
    Display aspect ratio : 16:9
    Frame rate : 23.976 fps
    Color space : YUV
    Chroma subsampling : 4:2:0
    Bit depth : 8 bits
    Scan type : Progressive
    Bits/(Pixel*Frame) : 0.166
    Stream size : 4.91 GiB (87%)
    Title : Apartment.1303-CHD3D
    Writing library : x264 core 133 r2334 a3ac64b
    Encoding settings : cabac=1 / ref=4 / deblock=1:-3:-3 / analyse=0x3:0x113 / me=umh / subme=10 / psy=1 / psy_rd=1.00:0.15 / mixed_ref=1 / me_range=32 / chroma_me=1 / trellis=2 / 8x8dct=1 / cqm=0 / deadzone=21,11 / fast_pskip=1 / chroma_qp_offset=-3 / threads=12 / lookahead_threads=1 / sliced_threads=0 / nr=0 / decimate=1 / interlaced=0 / bluray_compat=0 / constrained_intra=0 / bframes=6 / b_pyramid=2 / b_adapt=1 / b_bias=0 / direct=3 / weightb=1 / open_gop=0 / weightp=2 / keyint=250 / keyint_min=23 / scenecut=40 / intra_refresh=0 / rc_lookahead=40 / rc=crf / mbtree=1 / crf=16.0 / qcomp=0.60 / qpmin=10 / qpmax=69 / qpstep=4 / vbv_maxrate=40000 / vbv_bufsize=30000 / crf_max=0.0 / nal_hrd=none / ip_ratio=1.40 / aq=1:1.00
    Default : Yes
    Forced : Yes

    Audio #1
    ID : 2
    Format : AC-3
    Format/Info : Audio Coding 3
    Mode extension : CM (complete main)
    Codec ID : A_AC3
    Duration : 1h 25mn
    Bit rate mode : Constant
    Bit rate : 384 Kbps
    Channel(s) : 6 channels
    Channel positions : Front: L C R, Side: L R, LFE
    Sampling rate : 48.0 KHz
    Bit depth : 16 bits
    Compression mode : Lossy
    Delay relative to video : 1s 0ms
    Stream size : 234 MiB (4%)
    Title : Дубляж R5
    Language : Russian
    Default : Yes
    Forced : Yes

    Audio #2
    ID : 3
    Format : AC-3
    Format/Info : Audio Coding 3
    Mode extension : CM (complete main)
    Codec ID : A_AC3
    Duration : 1h 25mn
    Bit rate mode : Constant
    Bit rate : 640 Kbps
    Channel(s) : 6 channels
    Channel positions : Front: L C R, Side: L R, LFE
    Sampling rate : 48.0 KHz
    Bit depth : 16 bits
    Compression mode : Lossy
    Stream size : 390 MiB (7%)
    Title : Original
    Language : English
    Default : No
    Forced : No

    Menu
    00:00:00.000 : en:00:00:00.000
    00:05:47.013 : en:00:05:47.013
    00:11:42.285 : en:00:11:42.285
    00:18:30.318 : en:00:18:30.318
    00:22:51.704 : en:00:22:51.704
    00:29:48.870 : en:00:29:48.870
    00:36:12.587 : en:00:36:12.587
    00:43:00.912 : en:00:43:00.912
    00:49:26.297 : en:00:49:26.297
    00:54:54.875 : en:00:54:54.875
    01:04:03.256 : en:01:04:03.256
    01:14:00.478 : en:01:14:00.478
    Сценарий: Мишель Таверна / Michael Taverna, Кеи Оиши / Kei Oishi
    Продюсер: Синди Нельсон-Муллен / Cindy Nelson-Mullen, Мишель Таверна / Michael Taverna, Амир Фавац / Ameer Fawaz, Паола Лоренци / Paola Lorenzi, Дэнни Роснер / Danny Rosner
    Оператор: Пол М. Соммерс / Paul M. Sommers
    Композитор: Дави Бернагу / Davy Bernagoult, Йоанн Бернагу / Yoann Bernagoult, Джон Лиссауер / John Lissauer

    Сборы в России: $1 296 926

    Мировая премьера: 6 декабря 2012
    Релиз на DVD: 21 января 2013, «Новый Диск», «New Dream media»


    Скриншоты
    © Оформление by Vetalpb.wtf



  • Скачать Апартаменты 1303 через торрент http://i47.fastpic.ru/big/2013/0505/55/ff0fbc48f98fa52c0fc275351a996d55.png Скачать, смотреть онлайн Апартаменты 1303 бесплантно в хорошем качестве Описание:В этой квартире всегда рады новым жильцам. Но никто не знает о легенде проклятия, которое здесь обитает. Говорят в апартаментах ... 9.2 10 20
    Info! Золотая раздача, скачанное не засчитывается.
    Торрент: Зарегистрирован [2013-06-01 19:45] · скачан: 502 раз
    Статус: √ проверено
    Размер: 5.63 GB
    Как cкачать? Как скачать Апартаменты 1303 через торрент | UTorrent

    28-11-2019 20:33  

    Отключить всю рекламу на сайте

    27-08-2013 16:45 Апартаменты 1303 Скачать торрент  

    Раздавайте!pb.wtf



      Дорогой пользователь! Огромная просьба, поблагодарите релизера, оцените раздачу и оставьте свои комментарий, если Вы скачали Апартаменты 1303 через торрент бесплатно!
      Комментировать посты могут только пользователи прошедшие не сложную регистрацию
      Показать сообщения:    

      Апартаменты 1303 через торрент
      Скачать бесплатно Апартаменты 1303
      Апартаменты 1303 скачать торрент
      Апартаменты 1303 смотреть онлайн
      Cкачать фильм Апартаменты 1303 бесплатно
      Апартаменты 1303 скачать торрент в хорошем качестве
      Апартаменты 1303 смотреть онлайн бесплатно в хорошем качестве


      Вы не можете начинать темы
      Вы не можете отвечать на сообщения
      Вы не можете редактировать свои сообщения
      Вы не можете удалять свои сообщения
      Вы не можете голосовать в опросах
      Вы не можете прикреплять файлы к сообщениям
      Вы можете скачивать файлы