Достать ножи: Стеклянная луковица

MVO

Добыча

Дубляж

Уэнсдэй

1 сезон

Тор

Дубляж

13 клиническая

1 сезон

Жестокая ночь

MVO

Одни из нас

1 сезон

Deluxe

pack

Рекомендуем

30

Пиратка

ВАЖНО

ВАЖНО

Ghostwire

Пиратка

jed

RePack

nioh2

RePack

RDR2

RePack

NEED FOR SPEED™ PAYBACK

RePack

скачать торрент

Кинопоиск HD

Острые козырьки 6 сезон

6 сезон

FAR CRY 6

RePack

скачать торрент

Лицензия

скачать торрент

MVO

1

1 сезон

скачать торрент

1 сезон

скачать торрент

Лицензия

  

Газетчик / The Paperboy (Ли Дэниелс) [2012 г., триллер, НDRip] Дубляж НТВ+

Газетчик через торрент pb.wtf

Размер: 746 MB | Добавлен: 9 лет 7 мес. назад | Торрент скачан:153 раза
Смотреть онлайн | Скачать | Поддержите нас   

02-06-2013 09:39 Газетчик Скачать торрент  

Газетчик / The Paperboy


  • Год выпуска:2012
  • Страна: США
  • Жанр:триллер
  • Продолжительность: 01:46:45
  • Перевод:Профессиональный (полное дублирование)
    • Режиссер: Ли Дэниелс / Lee Daniels
    • Продюсер: Эд Кэйтелл III / Ed Cathell III, Ли Дэниелс / Lee Daniels, Кассиан Элвис / Cassian Elwes, Хилари Шор / Hilary Shor, Майкл Бенаройя / Michael Benaroya
    • Сценарий:Питер Декстер / Peter Dexter, Ли Дэниелс / Lee Daniels

  • В ролях:Мэттью МакКонахи (Ward Jansen), Зак Эфрон (Jack Jansen), Николь Кидман (Charlotte Bless), Джон Кьюсак (Hillary Van Wetter), Мейси Грэй (Anita Chester), Дэвид Ойелоуо (Yardley Acheman), Скотт Гленн (W.W. Jansen), Нед Беллами (Tyree Van Wetter), Ниалла Гордон (Ellen Guthrie), Эдрик Браун (Hustler #1), Кевин Ватерман (Victim), Дэнни Ханеманн (Sheriff Thurmond Call)
    • Описание:
      Конец 1960-х; успешный журналист Уорд расследует дерзкое убийство влиятельного шерифа-расиста в маленьком южном городке. Его цель - освободить несправедливо осуждённого и заодно сделать вместе с коллегой из Лондона сенсационный материал. Журналистам помогает юный разносчик газет Джек - родной брат Уорда, и невероятно сексапильная блондинка Шарлотта: она влюбилась по переписке в того самого заключенного из камеры смертников. Каждому из героев есть что скрывать и чего бояться - но раскалённый воздух Юга пробуждает самые тёмные и горячие желания...

  • Рейтинг
    kinopoisk.ru: 6.181 (2316)
    imdb.com: 5.70 (12 401)
    MPAA: R - Лицам до 17 лет обязательно присутствие взрослого
    • Качество: HDRip
    • Формат: AVI
    • Видео кодек: XviD
    • Аудио кодек: MP3
    • Видео: XviD; 640x272 (2.35:1); 839 Kbps; 23,976 fps; 0,201 bpp
    • Аудио: MP3 ; 128 Kbps; CBR; 2 ch, 48 kHz

    General
    Complete name : D:ТорентыGazet4ik.2012.D.HDRip.745Mb.avi
    Format : AVI
    Format/Info : Audio Video Interleave
    File size : 746 MiB
    Duration : 1h 46mn
    Overall bit rate : 977 Kbps
    Writing application : VirtualDubMod 1.5.10.2 (build 2540/release)
    Writing library : VirtualDubMod build 2540/release

    Video
    ID : 0
    Format : MPEG-4 Visual
    Format profile : Advanced [email protected]
    Format settings, BVOP : 2
    Format settings, QPel : No
    Format settings, GMC : No warppoints
    Format settings, Matrix : Default (MPEG)
    Codec ID : XVID
    Codec ID/Hint : XviD
    Duration : 1h 46mn
    Bit rate : 840 Kbps
    Width : 640 pixels
    Height : 272 pixels
    Display aspect ratio : 2.35:1
    Frame rate : 23.976 fps
    Color space : YUV
    Chroma subsampling : 4:2:0
    Bit depth : 8 bits
    Scan type : Progressive
    Compression mode : Lossy
    Bits/(Pixel*Frame) : 0.201
    Stream size : 641 MiB (86%)
    Writing library : XviD 1.2.1 (UTC 2008-12-04)

    Audio
    ID : 1
    Format : MPEG Audio
    Format version : Version 1
    Format profile : Layer 3
    Mode : Joint stereo
    Mode extension : MS Stereo
    Codec ID : 55
    Codec ID/Hint : MP3
    Duration : 1h 46mn
    Bit rate mode : Constant
    Bit rate : 128 Kbps
    Channel(s) : 2 channels
    Sampling rate : 48.0 KHz
    Compression mode : Lossy
    Stream size : 97.7 MiB (13%)
    Alignment : Aligned on interleaves
    Interleave, duration : 42 ms (1.00 video frame)
    Interleave, preload duration : 504 ms
    Writing library : LAME3.90.3
    Сценарий: Питер Декстер / Peter Dexter, Ли Дэниелс / Lee Daniels
    Продюсер: Эд Кэйтелл III / Ed Cathell III, Ли Дэниелс / Lee Daniels, Кассиан Элвис / Cassian Elwes, Хилари Шор / Hilary Shor, Майкл Бенаройя / Michael Benaroya
    Оператор: Роберто Шэфер / Roberto Schaefer
    Композитор: Марио Григоров / Mario Grigorov

    Бюджет: $12 500 000
    Сборы в США: $693 286
    Сборы в России: $147 871
    Сборы в мире: $1 353 868

    Мировая премьера: 24 мая 2012
    • Тоби Магуайр был приглашен на роль Уорда, но отказался из-за несогласованности расписаний съемок.
    • Алексу Петтиферу была первому предложена роль Джека.
    • Роль Шарлотты, которую исполняет Николь Кидман, могла достаться Софии Вергаре.
    • 2 мая 2012 года было официально объявлено, что главная музыкальная тема фильма была записана певицей Мэрайей Кэри и называется «Mesmerized».
    • Педро Альмодовар некоторое время возглавлял этот проект и серьезно задумывался о том, чтобы сделать из него свой первый фильм на английском языке. В конце концов, он отказался, но как утверждают, он участвовал в ранних версиях сценария.


    Скриншоты
    © Оформление by Vetal



  • Скачать Газетчик через торрент http://i47.fastpic.ru/big/2013/0505/55/ff0fbc48f98fa52c0fc275351a996d55.png Скачать, смотреть онлайн Газетчик бесплантно в хорошем качестве Описание:Конец 1960-х; успешный журналист Уорд расследует дерзкое убийство влиятельного шерифа-расиста в маленьком южном городке. Его цель ... 9.2 10 12
    Info! Золотая раздача, скачанное не засчитывается.
    Торрент: Зарегистрирован [2013-06-02 09:39] · скачан: 153 раз
    Статус: √ проверено
    Размер: 746 MB
    Как cкачать? Как скачать Газетчик через торрент | UTorrent

    28-11-2019 20:33  


    Отключить вcю реклaмy на сайте, в т.ч. и в плеере онлайн просмотра!

    03-06-2013 15:18 Газетчик Скачать торрент  

    Фильм наверное стоит смотреть под чем то. Эти несвязные сцены и реплики...возможно отчасти испортил фильм дубляж, не знаю. Смотреть тяжело.



      Дорогой пользователь! Огромная просьба, поблагодарите релизера, оцените раздачу и оставьте свои комментарий, если Вы скачали Газетчик через торрент бесплатно!!
      Комментировать посты могут только пользователи прошедшие не сложную регистрацию
      Показать сообщения:    


      Газетчик через торрент
      Скачать бесплатно Газетчик
      Газетчик скачать торрент
      Газетчик смотреть онлайн
      Cкачать фильм Газетчик бесплатно
      Газетчик скачать торрент в хорошем качестве
      Газетчик смотреть онлайн бесплатно в хорошем качестве
      Вы не можете начинать темы
      Вы не можете отвечать на сообщения
      Вы не можете редактировать свои сообщения
      Вы не можете удалять свои сообщения
      Вы не можете голосовать в опросах
      Вы не можете прикреплять файлы к сообщениям
      Вы можете скачивать файлы
      Газетчик / The Paperboy [2012 г., триллер, НDRip] Дубляж НТВ+ смотреть онлайн, скачать торрент picoco.icu