новый адрес
Мега распродажа FORZA HORIZON 4 ULTIMATE+ВСЕ DLC+ОНЛАЙН всего за 499р. 349 руб. (супер цена). Внимание количество ограничено!!!

iTunes

1+1

iTunes

мы

iTunes

1

iTunes

Чернобыль

iTunes

Ральф против интернета

Лицензия

ПШазам

Лицензия

Игра престолов

Лицензия

30
pack

ВАЖНО

!!Акция!!

Alien_RageХит недели

RePack

Resident Evil 21

ИГРА 18+

pack

RePack

Metro:Exodus

!!Акция!!

Alien_Rage

RePack

fifa19

RePack

Assassins Creed: Odyssey

RePack

NEED FOR SPEED™ PAYBACK

3 сезон

9 сезон

Бесстыжие 9 сезон

Все сериалы

все сериалы на PB.wtf

RePack

FAR CRY 5
Ребята, катастрофически не хватает 1900р. для оплаты серверов за Октябрь (всвязи с блокировками трафик упал в 3 раза), 1-2р., выручайте.
  

Нахаленок (Евгений Карелов) [1961 г., Детский, DVDRip] pb.wtf

Нахаленок через торрент pb.wtf

Размер: 736 MB | Добавлен: 6 лет 5 мес. назад | Торрент скачан:85 раз
Скачать  

02-06-2013 11:13 Нахаленок Скачать торрент  

Нахаленок
Год выпуска: 1961
Страна: СССР
Жанр: Детский,
Продолжительность: 00:53:43

Режиссер: Евгений Карелов
Сценарий: Арнольд Витоль, Михаил Шолохов

Премьера в мире: 7 ноября 1961

IMDB 6.40 (9)


В ролях: Люся Беспалова, Вера Бурлакова, Миша Гаврилин, Владимир Гусев, Даниил Ильченко, Виктор Колпаков, Евгений Моргунов, Даниил Нетребин, Владимир Пицек, Игорь Савельев,

Описание: Большевик Фома Коршунов возвращается в станицу. Вскоре у семилетнего Мишки появляется новое прозвище «Коммуненок».

Качество: DVDRip
Формат: AVI
Видео кодек: XviD
Аудио кодек: AC3
Видео: 720x544 (1.32:1), 25 fps, XviD build 50 ~1713 kbps avg, 0.17 bit/pixel
Аудио#1: 48 kHz, AC3 Dolby Digital, 2/0 (L,R) ch, ~192 kbps


Общее
Полное имя : F:ЗакачкиNahalenok.1961.DVDRip.avi
Формат : AVI
Формат/Информация : Audio Video Interleave
Размер файла : 736 Мбайт
Продолжительность : 53 м.
Общий поток : 1916 Кбит/сек
Программа кодирования : VirtualDubMod 1.5.10.3 | www.virtualdub-fr.org || (build 2550/release)
Библиотека кодирования : VirtualDubMod build 2550/release

Видео
Идентификатор : 0
Формат : MPEG-4 Visual
Профиль формата : Advanced Simple@L5
Параметр BVOP формата : 2
Параметр QPel формата : Нет
Параметр GMC формата : Без точки перехода
Параметр матрицы формата : Default (H.263)
Идентификатор кодека : XVID
Идентификатор кодека/Подсказка : XviD
Продолжительность : 53 м.
Битрейт : 1714 Кбит/сек
Ширина : 720 пикселей
Высота : 544 пикселя
Соотношение сторон : 4:3
Частота кадров : 25,000 кадров/сек
Цветовое пространство : YUV
Субдискретизация насыщенности : 4:2:0
Битовая глубина : 8 бит
Тип развёртки : Прогрессивная
Метод сжатия : С потерями
Бит/(Пиксели*Кадры) : 0.175
Размер потока : 659 Мбайт (89%)
Библиотека кодирования : XviD 1.2.1 (UTC 2008-12-04)

Аудио
Идентификатор : 1
Формат : AC-3
Формат/Информация : Audio Coding 3
Расширение режима : CM (complete main)
Параметр Endianness формата : Big
Идентификатор кодека : 2000
Продолжительность : 53 м.
Вид битрейта : Постоянный
Битрейт : 192 Кбит/сек
Каналы : 2 канала
Расположение каналов : Front: L R
Частота : 48,0 КГц
Битовая глубина : 16 бит
Метод сжатия : С потерями
Размер потока : 73,8 Мбайт (10%)
Выравнивание : Разделение по промежуткам
Продолжительность промежутка : 40 мс. (1,00 видеокадр)
Время предзагрузки промежутка : 500 мс.


Нахаленок скачать торрент


pb.wtf



Скачать Нахаленок через торрент http://i46.fastpic.ru/big/2013/0602/ea/fb2b4d74ea583662d4eab09e624d44ea.jpg Скачать фильм Нахаленок через торрент бесплантно в хорошем качестве Описание: Большевик Фома Коршунов возвращается в станицу. Вскоре у семилетнего Мишки появляется новое прозвище ... 10 10 11
Info! Золотая раздача, скачанное не засчитывается.
Торрент: Зарегистрирован [2013-06-02 11:13] · скачан: 85 раз
Статус: √ проверено
Размер: 736 MB
Как cкачать? Как скачать Нахаленок через торрент | qTorrent

% Раздел Тема Автор DL S | L
Детские отечественные фильмы [ 745 MB ] Нахаленок [1961 СССР детский SATRip-AVC от AVP Studio] AVP Studio Скачать
1 | 0
Детские отечественные фильмы [ 744 MB ] Нахаленок [1961 СССР детский SATRip от AVP Studio] AVP Studio Скачать
1 | 0


>> Регистрируемся здесь <<






Отзывы и комментарии о схеме читаем и пишем здесь: ---> Отзывы и комментарии о схеме

Новые благодарочки в телеграм довольных пользователей:
скриншот   скриншот   скриншот   скриншот   скриншот

02-06-2013 11:19 Нахаленок Скачать торрент  

"Маманька, пришей помочь, я на войну пойду!" :good2:pb.wtf



02-06-2013 11:40 Нахаленок Скачать торрент  

шикарный фильм :good: pb.wtf



02-06-2013 15:42 Нахаленок Скачать торрент  

-"Попомни диду, выпадут у тебя зубы - я жевать тебе не буду!" ^_^ Эх, какое кино снимали!pb.wtf



03-06-2013 04:07 Нахаленок Скачать торрент  

детство детство ты куда ушло!pb.wtf



    Дорогой пользователь! Огромная просьба, поблагодарите релизера, оцените раздачу и оставьте свои комментарий, если Вы скачали Нахаленок через торрент бесплатно! Внесите свою лепту в развитие PiratBit!
    Комментировать посты могут только пользователи прошедшие не сложную регистрацию
    Показать сообщения:    

    Нахаленок через торрент
    Скачать бесплатно Нахаленок
    Нахаленок скачать торрент
    Нахаленок смотреть онлайн
    Cкачать фильм Нахаленок бесплатно
    Нахаленок скачать торрент в хорошем качестве
    Нахаленок смотреть онлайн бесплатно в хорошем качестве


    Вы не можете начинать темы
    Вы не можете отвечать на сообщения
    Вы не можете редактировать свои сообщения
    Вы не можете удалять свои сообщения
    Вы не можете голосовать в опросах
    Вы не можете прикреплять файлы к сообщениям
    Вы можете скачивать файлы