2 сезон

iTunes

1 сезон

1

iTunes

iTunes

iTunes

1 сезон

RePack

30

ИГРА 18+

pack

ВАЖНО

!!Акция!!

Alien_RageХит недели

RePack

MK11
pack

Забери бонус

RePack

jed

!!Акция!!

Alien_Rage

RePack

fifa19

RePack

Assassins Creed: Odyssey

RePack

NEED FOR SPEED™ PAYBACK

4 сезон

9 сезон

Бесстыжие 9 сезон

Все сериалы

все сериалы на PB.wtf

RePack

FAR CRY 5
  

Газетчик / The Paperboy (Ли Дэниелс) [2012 г., триллер, BDRip 720p, Дублированное [НТВ+]] pb.wtf

Газетчик через торрент pb.wtf

Размер: 4.51 GB | Добавлен: 7 лет 4 мес. назад | Торрент скачан:90 раз
Скачать  

02-06-2013 11:58 Газетчик Скачать торрент  

Газетчик / The Paperboy

Год выпуска: 2012
Страна: США
Жанр: триллер,
Продолжительность: 01:46:45
Перевод: Дублированное [НТВ+]
Субтитры: Russian [notabenoid], English

Режиссер: Ли Дэниелс
Продюссер: Эд Кэйтелл III, Ли Дэниелс, Кассиан Элвис
Сценарий: Питер Декстер, Ли Дэниелс

Бюджет: $12 500 000
Премьера в мире: 24 мая 2012

IMDB 5.70 (12 401)


В ролях: Мэттью МакКонахи, Зак Эфрон, Николь Кидман, Джон Кьюсак, Мейси Грэй, Дэвид Ойелоуо, Скотт Гленн, Нед Беллами, Ниалла Гордон, Эдрик Браун, Александр Гаврилин, Елена Шульман, Александр Дасевич, Владимир Рыбальченко,

Описание: Конец 1960-х; успешный журналист Уорд расследует дерзкое убийство влиятельного шерифа-расиста в маленьком южном городке. Его цель — освободить несправедливо осуждённого и заодно сделать вместе с коллегой из Лондона сенсационный материал. Журналистам помогает юный разносчик газет Джек — родной брат Уорда, и невероятно сексапильная блондинка Шарлотта: она влюбилась по переписке в того самого заключенного из камеры смертников. Каждому из героев есть что скрывать и чего бояться — но раскалённый воздух Юга пробуждает самые тёмные и горячие желания...

Качество: BDRip 720p
Формат: MKV
Видео кодек: H.264
Аудио кодек: AC3
Видео: MPEG4 Video (H264) 1280x534 23.976fps 5214 kb/s
Аудио 1: Dolby AC3 48000Hz stereo 2 ch 192 kbps Russian [НТВ+]
Аудио 2: Dolby AC3 48000Hz 6ch 640 kbps English


Скриншоты

скриншот   скриншот   скриншот   скриншот  


General
Unique ID : 213529736950374283651884334057279583026 (0xA0A454D9510177AF82293C5BAF19F332)
Complete name : E:ФильмыThe.Paperboy.mkv
Format : Matroska
Format version : Version 4 / Version 2
File size : 4.51 GiB
Duration : 1h 46mn
Overall bit rate : 6 048 Kbps
Encoded date : UTC 2013-06-02 08:27:38
Writing application : mkvmerge v6.2.0 ('Promised Land') built on Apr 28 2013 12:22:01
Writing library : libebml v1.3.0 + libmatroska v1.4.0

Video
ID : 1
Format : AVC
Format/Info : Advanced Video Codec
Format profile : High@L4.1
Format settings, CABAC : Yes
Format settings, ReFrames : 12 frames
Codec ID : V_MPEG4/ISO/AVC
Duration : 1h 46mn
Bit rate : 5 214 Kbps
Width : 1 280 pixels
Height : 534 pixels
Display aspect ratio : 2.40:1
Frame rate mode : Constant
Frame rate : 23.976 fps
Color space : YUV
Chroma subsampling : 4:2:0
Bit depth : 8 bits
Scan type : Progressive
Bits/(Pixel*Frame) : 0.318
Stream size : 3.80 GiB (84%)
Title : The.Paperboy.2012.BluRay.720p.AC3.x264-CHD
Writing library : x264 core 129 r2230 1cffe9f
Encoding settings : cabac=1 / ref=12 / deblock=1:-3:-3 / analyse=0x3:0x113 / me=umh / subme=10 / psy=1 / psy_rd=1.10:0.15 / mixed_ref=1 / me_range=32 / chroma_me=1 / trellis=2 / 8x8dct=1 / cqm=0 / deadzone=21,11 / fast_pskip=0 / chroma_qp_offset=-2 / threads=12 / lookahead_threads=2 / sliced_threads=0 / nr=0 / decimate=1 / interlaced=0 / bluray_compat=0 / constrained_intra=0 / bframes=6 / b_pyramid=2 / b_adapt=2 / b_bias=0 / direct=3 / weightb=1 / open_gop=0 / weightp=2 / keyint=250 / keyint_min=23 / scenecut=40 / intra_refresh=0 / rc_lookahead=40 / rc=2pass / mbtree=0 / bitrate=5214 / ratetol=1.0 / qcomp=0.60 / qpmin=0 / qpmax=69 / qpstep=4 / cplxblur=20.0 / qblur=0.5 / vbv_maxrate=40000 / vbv_bufsize=30000 / nal_hrd=none / ip_ratio=1.40 / pb_ratio=1.30 / aq=1:0.80
Language : English
Default : Yes
Forced : Yes

Audio #1
ID : 2
Format : AC-3
Format/Info : Audio Coding 3
Mode extension : CM (complete main)
Format settings, Endianness : Big
Codec ID : A_AC3
Duration : 1h 46mn
Bit rate mode : Constant
Bit rate : 192 Kbps
Channel(s) : 2 channels
Channel positions : Front: L R
Sampling rate : 48.0 KHz
Bit depth : 16 bits
Compression mode : Lossy
Stream size : 147 MiB (3%)
Title : DD 2.0 @ 192 kbps - Dub, NTV+
Language : Russian
Default : Yes
Forced : Yes

Audio #2
ID : 3
Format : AC-3
Format/Info : Audio Coding 3
Mode extension : CM (complete main)
Format settings, Endianness : Big
Codec ID : A_AC3
Duration : 1h 46mn
Bit rate mode : Constant
Bit rate : 640 Kbps
Channel(s) : 6 channels
Channel positions : Front: L C R, Side: L R, LFE
Sampling rate : 48.0 KHz
Bit depth : 16 bits
Compression mode : Lossy
Stream size : 489 MiB (11%)
Title : DD 5.1 @ 640 kbps
Language : English
Default : No
Forced : No

Text #1
ID : 4
Format : UTF-8
Codec ID : S_TEXT/UTF8
Codec ID/Info : UTF-8 Plain Text
Title : notabenoid
Language : Russian
Default : No
Forced : No

Text #2
ID : 5
Format : UTF-8
Codec ID : S_TEXT/UTF8
Codec ID/Info : UTF-8 Plain Text
Language : English
Default : No
Forced : No


Газетчик скачать торрент


pb.wtf



Скачать Газетчик через торрент http://pic.kartinco.top/images/2/6ia151tegf.png Скачать фильм Газетчик через торрент бесплантно в хорошем качестве Описание: Конец 1960-х; успешный журналист Уорд расследует дерзкое убийство влиятельного шерифа-расиста в маленьком южном городке. Его цель ... 10 10 5
Info! Золотая раздача, скачанное не засчитывается.
Торрент: Зарегистрирован [2013-06-02 11:58] · скачан: 90 раз
Статус: √ проверено
Размер: 4.51 GB
Как cкачать? Как скачать Газетчик через торрент | qTorrent

% Раздел Тема Автор DL S | L
Фильмы [HD 720p, 1080p] (Хороший звук DUB, MVO) [ 10.13 GB ] Газетчик / The Paperboy [2012 экранизация BDRip 720p от _denis_100 | NNNB] DUB + AVO + Original + Sub _denis_100 Скачать
1 | 0
Фильмы 2012 [ 1.45 GB ] Газетчик / The Paperboy [2012 НDRip] DUB [лицензия] Ворон Скачать
1 | 0
Фильмы [HD 720p, 1080p] (Хороший звук DUB, MVO) [ 8.84 GB ] Газетчик / The Paperboy [2012 BDRip 1080p] DUB [НТВ Ворон Скачать
1 | 0
Фильмы 2012 [ 1.46 GB ] Газетчик / The Paperboy [2012 НDRip] DUB НТВ+ diletant Скачать
1 | 0
Фильмы 2012 [ 746 MB ] Газетчик / The Paperboy [2012 НDRip] DUB НТВ+ Ворон Скачать
1 | 0

28-11-2019 20:33  

Отключить всю рекламу на сайте

    Дорогой пользователь! Огромная просьба, поблагодарите релизера, оцените раздачу и оставьте свои комментарий, если Вы скачали Газетчик через торрент бесплатно! Внесите свою лепту в развитие PiratBit!
    Комментировать посты могут только пользователи прошедшие не сложную регистрацию
    Показать сообщения:    

    Газетчик через торрент
    Скачать бесплатно Газетчик
    Газетчик скачать торрент
    Газетчик смотреть онлайн
    Cкачать фильм Газетчик бесплатно
    Газетчик скачать торрент в хорошем качестве
    Газетчик смотреть онлайн бесплатно в хорошем качестве


    Вы не можете начинать темы
    Вы не можете отвечать на сообщения
    Вы не можете редактировать свои сообщения
    Вы не можете удалять свои сообщения
    Вы не можете голосовать в опросах
    Вы не можете прикреплять файлы к сообщениям
    Вы можете скачивать файлы