новый адрес
Ссылка на приватное зеркало всего за 1$. Внимание количество ограничено!!!

iTunes

1+1

iTunes

мы

iTunes

1

iTunes

Чернобыль

iTunes

Ральф против интернета

Лицензия

ПШазам

Лицензия

Оно 2

Лицензия

30
pack

Вам бонус

ВАЖНО

!!Акция!!

Alien_RageХит недели

RePack

Resident Evil 21

ИГРА 18+

pack

RePack

jed

!!Акция!!

Alien_Rage

RePack

fifa19

RePack

Assassins Creed: Odyssey

RePack

NEED FOR SPEED™ PAYBACK

3 сезон

9 сезон

Бесстыжие 9 сезон

Все сериалы

все сериалы на PB.wtf

RePack

FAR CRY 5
Ребята, катастрофически не хватает 1900р. для оплаты серверов за Октябрь (всвязи с блокировками трафик упал в 3 раза), 1-2р., выручайте.
  

Последние добрые слова / Last Kind Words (Кевин Баркер)[2012, триллер, драма, детектив, WEB-DLRip] DVO [DeadSno & den904] pb.wtf

Последние добрые слова через торрент pb.wtf

Размер: 1.37 GB | Добавлен: 6 лет 6 мес. назад | Торрент скачан:365 раз
Скачать  

02-06-2013 15:56 Последние добрые слова Скачать торрент  

Последние добрые слова / Last Kind Words


  • Год выпуска:2012
  • Страна: США
  • Жанр:триллер, драма, детектив
  • Продолжительность: 01:27:00
  • Перевод:Любительский (двухголосый)[DeadSno & den904], перевод [Janetta], работа со звуком [КОЛОБОК]
    • Режиссер: Кевин Баркер / Kevin Barker
    • Продюсер: Дуан Андерсен / Duane Andersen, Эми Миллер / Amy Miller, Майкл Корренте / Michael Corrente
    • Сценарий:Кевин Баркер / Kevin Barker, Эми Миллер / Amy Miller

  • В ролях:Брэд Дуриф (Waylon), Спенсер Дэниелс (Eli), Алексия Фаст (Amanda), Марианн Хэйгэн (Ida), Сара Стил (Katie), Клэй Уилкокс (Bud), Рич Уильямс (Mr. Peterson), Рон Элиот, Джоэнн Кель, Robert A.A. Lowe, Элинор МакКенна, Даррел П. Миллер (Farmer)
    • Описание:
      17-летний юноша Илай переезжает вместе со своими родителями в самую глушь Кентукки. Его необъяснимо притягивает прохлада леса, где Илай любит бродить часами. Именно там он встречает прекрасную, милую и загадочную Аманду, девушку своей мечты.
      Но после того, как юноша обнаруживает в лесу тело повешенного человека, события приобретают неожиданный поворот, и Илаю предстоит узнать темную и пугающую правду о той, которую он полюбил.

  • Рейтинг
    imdb.com: 4.50 (110)
    • Качество: WEB-DLRip
    • Формат: AVI
    • Видео кодек: XviD
    • Аудио кодек: AC3
    • Видео: XviD; 720x304 (2.35:1); 1855 Kbps; 23,976 fps; 0,354 bpp
    • Аудио: AC3; 384 Kbps; CBR; 6 ch; 16 bit, 48 kHz

    General
    Complete name : D:ТорентыPoslednie.dobrie.slova.2012.L2.WEB-DLRip.1400MB.avi
    Format : AVI
    Format/Info : Audio Video Interleave
    File size : 1.37 GiB
    Duration : 1h 27mn
    Overall bit rate : 2 249 Kbps
    Writing application : VirtualDubMod 1.5.10.2 (build 2540/release)
    Writing library : VirtualDubMod build 2540/release

    Video
    ID : 0
    Format : MPEG-4 Visual
    Format profile : Advanced Simple@L5
    Format settings, BVOP : 2
    Format settings, QPel : No
    Format settings, GMC : No warppoints
    Format settings, Matrix : Default (H.263)
    Codec ID : XVID
    Codec ID/Hint : XviD
    Duration : 1h 27mn
    Bit rate : 1 856 Kbps
    Width : 720 pixels
    Height : 304 pixels
    Display aspect ratio : 2.35:1
    Frame rate : 23.976 fps
    Color space : YUV
    Chroma subsampling : 4:2:0
    Bit depth : 8 bits
    Scan type : Progressive
    Compression mode : Lossy
    Bits/(Pixel*Frame) : 0.354
    Stream size : 1.13 GiB (83%)
    Writing library : XviD 1.2.1 (UTC 2008-12-04)

    Audio
    ID : 1
    Format : AC-3
    Format/Info : Audio Coding 3
    Mode extension : CM (complete main)
    Codec ID : 2000
    Duration : 1h 27mn
    Bit rate mode : Constant
    Bit rate : 384 Kbps
    Channel(s) : 6 channels
    Channel positions : Front: L C R, Side: L R, LFE
    Sampling rate : 48.0 KHz
    Bit depth : 16 bits
    Compression mode : Lossy
    Stream size : 239 MiB (17%)
    Alignment : Split accross interleaves
    Interleave, duration : 42 ms (1.00 video frame)
    Interleave, preload duration : 500 ms
    Сценарий: Кевин Баркер / Kevin Barker, Эми Миллер / Amy Miller
    Продюсер: Дуан Андерсен / Duane Andersen, Эми Миллер / Amy Miller, Майкл Корренте / Michael Corrente
    Оператор: Билл Отто / Bill Otto
    Композитор: Robert A.A. Lowe

    Мировая премьера: 24 марта 2012


    Скриншоты
    © Оформление by Vetalpb.wtf



  • Скачать Последние добрые слова через торрент http://i47.fastpic.ru/big/2013/0505/55/ff0fbc48f98fa52c0fc275351a996d55.png Скачать фильм Последние добрые слова через торрент бесплантно в хорошем качестве Описание:17-летний юноша Илай переезжает вместе со своими родителями в самую глушь Кентукки. Его необъяснимо притягивает прохлада леса, где ... 8.5 10 13
    Info! Золотая раздача, скачанное не засчитывается.
    Торрент: Зарегистрирован [2013-06-02 15:56] · скачан: 365 раз
    Статус: √ проверено
    Размер: 1.37 GB
    Как cкачать? Как скачать Последние добрые слова через торрент | qTorrent



    Последний раз редактировалось: Ворон (2013-06-02 16:13), всего редактировалось 1 раз
    Отключить всю рекламу на сайте
      Дорогой пользователь! Огромная просьба, поблагодарите релизера, оцените раздачу и оставьте свои комментарий, если Вы скачали Последние добрые слова через торрент бесплатно! Внесите свою лепту в развитие PiratBit!
      Комментировать посты могут только пользователи прошедшие не сложную регистрацию
      Показать сообщения:    

      Последние добрые слова через торрент
      Скачать бесплатно Последние добрые слова
      Последние добрые слова скачать торрент
      Последние добрые слова смотреть онлайн
      Cкачать фильм Последние добрые слова бесплатно
      Последние добрые слова скачать торрент в хорошем качестве
      Последние добрые слова смотреть онлайн бесплатно в хорошем качестве


      Вы не можете начинать темы
      Вы не можете отвечать на сообщения
      Вы не можете редактировать свои сообщения
      Вы не можете удалять свои сообщения
      Вы не можете голосовать в опросах
      Вы не можете прикреплять файлы к сообщениям
      Вы можете скачивать файлы