2 сезон

iTunes

MVO

1

2 сезон

iTunes

iTunes

1 сезон

RePack

30

Новинка

ВАЖНО

ИГРА 18+

pack

RePack

MK11
pack

Легкие деньги

RePack

jed

RePack

fifa19

RePack

RDR2

RePack

NEED FOR SPEED™ PAYBACK

4 сезон

9 сезон

Бесстыжие 9 сезон

Все сериалы

все сериалы на PB.wtf

RePack

FAR CRY 5

Anonymous, доброй ночи, мы не успеваем собрать деньги на оплату серверов за декабрь и январь, помогите нам пожалуйста в это трудное время. В качестве благодарности мы отключим Вам всю рекламу на сайте (укажите свой ник в строку Ваше имя)!

×
  
Magnet ссылка

Трансформеры 3: Тёмная сторона Луны в 3D / Transformers: Dark of the Moon in 3D (Майкл Бэй) [2011 г., фантастика, боевик, приключения, BDRip 1080p, Дубляж, лицензия] Анаглиф (Дюбуа) pb.wtf

Трансформеры 3: Тёмная сторона Луны в 3D через торрент pb.wtf

Размер: 9.05 GB | Добавлен: 7 лет 7 мес. назад | Торрент скачан:621 раз
Скачать  

02-06-2013 18:24 Трансформеры 3: Тёмная сторона Луны в 3D Скачать торрент  

Трансформеры 3: Тёмная сторона Луны в 3D / Transformers: Dark of the Moon in 3D
Год выпуска: 2011
Страна: США
Жанр: фантастика, боевик, приключения,
Продолжительность: 02:34:22
Перевод: Дубляж, Лицензия
Субтитры: Russian

Режиссер: Майкл Бэй
Продюссер: Йен Брюс, Том ДеСанто, Лоренцо Ди Бонавентура
Сценарий: Эрен Крюгер

Бюджет: $195 000 000
Премьера в мире: 25 июня 2011

IMDB 6.30 (202 304)



В ролях: Шайа ЛаБаф, Роузи Хантингтон-Уайтли, Джош Дюамель, Джон Туртурро, Патрик Демпси, Фрэнсис МакДорманд, Кен Жонг, Алан Тьюдик, Джон Малкович, Тайриз Гибсон,
Роли дублировали: Илья Хвостиков, Полина Щербакова, Сергей Бурунов, Константин Карасик, Василий Дахненко,

Описание: Для наших героев наступили печальные будни: Сэм потерял Микаэлу, правительство выпускает законодательный акт о выселении Автоботов с Земли, а пока Мегатрон скрывается после позорного поражения Фоллена, десептикон Шокуэйв, правитель Кибертрона, готовится нанести визит нашей планете с совсем недобрыми намерениями. Действие заключительной части трилогии на этот раз охватит не только Землю, но и Луну, темная сторона которой хранит не менее темные тайны.

Доп. информация: (CROP), Формат 3D: Анаглиф (Дюбуа)



Качество: BDRip 1080p
Формат: MKV
Видео кодек: H.264
Аудио кодек: AC3
Видео: 1920 х 1072 / 23,976 fps, (16:9) / 8002 Kbps, (0.162 bit/pixel)
Аудио#1: Русский / AC3 / 48 KHz / 5.1 ch / 384 Kbps



скриншот   скриншот   скриншот   скриншот  
Общее
Уникальный идентификатор : 325901652594204194130994108632827466912 (0xF52E600ADB15D89BA8A7648229DC94A0)
Полное имя : D:DVDTransformers.Dark.of.the.moon.3D.Crop(Anaglyph_Dubois).mkv
Формат : Matroska
Версия формата : Version 2
Размер файла : 9,05 Гбайт
Продолжительность : 2 ч. 34 м.
Общий поток : 8395 Кбит/сек
Программа кодирования : HandBrake 0.9.9
Библиотека кодирования : libmkv 0.6.5

Видео
Идентификатор : 1
Формат : AVC
Формат/Информация : Advanced Video Codec
Профиль формата : Baseline@L4.0
Параметр CABAC формата : Нет
Параметр ReFrames формата : 1 кадр
Идентификатор кодека : V_MPEG4/ISO/AVC
Продолжительность : 2 ч. 34 м.
Битрейт : 8002 Кбит/сек
Ширина : 1920 пикселей
Высота : 1072 пикселя
Соотношение сторон : 16:9
Режим частоты кадров : Постоянный
Частота кадров : 23,976 кадра/сек
Цветовое пространство : YUV
Субдискретизация насыщенности : 4:2:0
Битовая глубина : 8 бит
Тип развёртки : Прогрессивная
Бит/(Пиксели*Кадры) : 0.162
Размер потока : 8,46 Гбайт (93%)
Библиотека кодирования : x264 core 130 r2273 b3065e6
Настройки программы : cabac=0 / ref=1 / deblock=0:0:0 / analyse=0:0 / me=dia / subme=0 / psy=1 / psy_rd=1.00:0.00 / mixed_ref=0 / me_range=16 / chroma_me=1 / trellis=0 / 8x8dct=0 / cqm=0 / deadzone=21,11 / fast_pskip=1 / chroma_qp_offset=0 / threads=3 / lookahead_threads=1 / sliced_threads=0 / nr=0 / decimate=1 / interlaced=0 / bluray_compat=0 / constrained_intra=0 / bframes=0 / weightp=0 / keyint=240 / keyint_min=24 / scenecut=0 / intra_refresh=0 / rc=abr / mbtree=0 / bitrate=8002 / ratetol=1.0 / qcomp=0.60 / qpmin=0 / qpmax=69 / qpstep=4 / ip_ratio=1.40 / aq=0
Язык : English
Default : Да
Forced : Нет
Основные цвета : BT.709
Характеристики трансфера : BT.709
Коэффициенты матрицы : BT.709

Аудио
Идентификатор : 2
Формат : AC-3
Формат/Информация : Audio Coding 3
Расширение режима : CM (complete main)
Параметр Endianness формата : Big
Идентификатор кодека : A_AC3
Продолжительность : 2 ч. 34 м.
Вид битрейта : Постоянный
Битрейт : 384 Кбит/сек
Каналы : 6 каналов
Расположение каналов : Front: L C R, Side: L R, LFE
Частота : 48,0 КГц
Битовая глубина : 16 бит
Метод сжатия : С потерями
Размер потока : 424 Мбайт (5%)
Язык : Russian
Default : Да
Forced : Нет

Текст
Идентификатор : 3
Формат : UTF-8
Идентификатор кодека : S_TEXT/UTF8
Идентификатор кодека/Информация : UTF-8 Plain Text
Язык : Russian
Default : Нет
Forced : Нет

Меню
00:00:00.000 : Chapter 1
00:08:52.823 : Chapter 2
00:14:26.615 : Chapter 3
00:20:20.969 : Chapter 4
00:28:48.143 : Chapter 5
00:36:18.634 : Chapter 6
00:45:18.549 : Chapter 7
00:51:53.026 : Chapter 8
00:56:34.224 : Chapter 9
01:04:13.307 : Chapter 10
01:12:56.705 : Chapter 11
01:19:09.077 : Chapter 12
01:23:41.433 : Chapter 13
01:28:44.819 : Chapter 14
01:35:13.082 : Chapter 15
01:42:44.158 : Chapter 16
01:49:12.337 : Chapter 17
01:56:42.912 : Chapter 18
02:04:59.158 : Chapter 19
02:11:29.590 : Chapter 20
02:19:10.884 : Chapter 21
02:25:37.520 : Chapter 22


Трансформеры 3: Тёмная сторона Луны скачать торрент


pb.wtf



Скачать Трансформеры 3: Тёмная сторона Луны в 3D через торрент http://i48.fastpic.ru/big/2013/0602/06/a3885690dded721ee7f93c36af846706.gif Скачать фильм Трансформеры 3: Тёмная сторона Луны в 3D через торрент бесплантно в хорошем качестве Описание: Для наших героев наступили печальные будни: Сэм потерял Микаэлу, правительство выпускает законодательный акт о выселении ... 8.5 10 18
Info! Золотая раздача, скачанное не засчитывается.
Торрент: Зарегистрирован [2013-06-02 18:24] · скачан: 621 раз
Статус: √ проверено
Размер: 9.05 GB
Как cкачать? Как скачать Трансформеры 3: Тёмная сторона Луны в 3D через торрент | UTorrent

28-11-2019 20:33  

Отключить всю рекламу на сайте

02-06-2013 19:06 Трансформеры 3: Тёмная сторона Луны в 3D Скачать торрент  

Вот почему Россия да и весь бывший союз.
некогда не смогут снять подобный фильм.
Блин кино в России умерло наши могут снимать только военные сериалы про 2 мировую войну. на этом наш репертуар окончен.
Обидно pb.wtf



02-06-2013 19:45 Трансформеры 3: Тёмная сторона Луны в 3D Скачать торрент  

mastre
После просмотра данной картины Легенда №17 я поверил что наши могут если захотят, так что рано хоронитьpb.wtf



    Дорогой пользователь! Огромная просьба, поблагодарите релизера, оцените раздачу и оставьте свои комментарий, если Вы скачали Трансформеры 3: Тёмная сторона Луны в 3D через торрент бесплатно! Внесите свою лепту в развитие PiratBit!
    Комментировать посты могут только пользователи прошедшие не сложную регистрацию
    Показать сообщения:    

    Трансформеры 3: Тёмная сторона Луны в 3D через торрент
    Скачать бесплатно Трансформеры 3: Тёмная сторона Луны в 3D
    Трансформеры 3: Тёмная сторона Луны в 3D скачать торрент
    Трансформеры 3: Тёмная сторона Луны в 3D смотреть онлайн
    Cкачать фильм Трансформеры 3: Тёмная сторона Луны в 3D бесплатно
    Трансформеры 3: Тёмная сторона Луны в 3D скачать торрент в хорошем качестве
    Трансформеры 3: Тёмная сторона Луны в 3D смотреть онлайн бесплатно в хорошем качестве


    Вы не можете начинать темы
    Вы не можете отвечать на сообщения
    Вы не можете редактировать свои сообщения
    Вы не можете удалять свои сообщения
    Вы не можете голосовать в опросах
    Вы не можете прикреплять файлы к сообщениям
    Вы можете скачивать файлы