новый адрес
Ссылка на приватное зеркало всего за 1$. Внимание количество ограничено!!!

iTunes

1+1

iTunes

мы

WEB-DL

1

iTunes

Чернобыль

iTunes

Ральф против интернета

Лицензия

ПШазам

Лицензия

Оно 2

Лицензия

30
pack

Вам бонус

ВАЖНО

!!Акция!!

Alien_RageХит недели

RePack

Resident Evil 21

ИГРА 18+

pack

RePack

jed

!!Акция!!

Alien_Rage

RePack

fifa19

RePack

Assassins Creed: Odyssey

RePack

NEED FOR SPEED™ PAYBACK

3 сезон

9 сезон

Бесстыжие 9 сезон

Все сериалы

все сериалы на PB.wtf

RePack

FAR CRY 5
Ребята, катастрофически не хватает 1900р. для оплаты серверов за Октябрь (всвязи с блокировками трафик упал в 3 раза), 1-2р., выручайте.
  

Заложник / Captive (Джордан Браун, Джонатан Барнетт) [2013 г., боевик, триллер, WEB-DLRip] VO [den904] pb.wtf

Заложник через торрент pb.wtf

Размер: 1.37 GB | Добавлен: 6 лет 6 мес. назад | Торрент скачан:375 раз
Скачать  

02-06-2013 19:42 Заложник Скачать торрент  

Заложник / Captive
Год выпуска: 2013
Страна: Канада
Жанр: боевик, триллер,
Продолжительность: 01:28:00
Перевод: Любительский одноголосый[den904], перевод [Janetta], работа со звуком [spee2k]

Режиссер: Джордан Браун, Джонатан Барнетт

В ролях: Эрик Брекер, Кори Ремпель, Далиас Блейк, Кендра Андерсон, Золтан Бедэй, Чарльз Цуккерман, Дж.П. Райдер, Rowland Pidlubny, Джеймс Р. Бейлис, Ромуальд Ивер ...,

Описание: Детектив, разыскиваемый за убийство, похищает журналиста и удерживает его в заложниках . Им обоим предстоит сделать много опасных открытий, и правда будет одинаково неожиданна для них обоих.

Качество: WEB-DLRip
Формат: AVI
Видео кодек: XviD
Аудио кодек: AC3
Видео: MPEG4, XviD, 720x304 (2.35:1), 23.976 fps, 1 830 Kbps (0.349 bit/pixel)
Аудио#1: AC-3, 48.0 KHz, 6 ch, 384 Kbps, CBR

Общее
Полное имя : D:ТорентыCaptive.2013.L1.WEB-DLRip.1400Mb.avi
Формат : AVI
Формат/Информация : Audio Video Interleave
Размер файла : 1,37 Гбайт
Продолжительность : 1 ч. 28 м.
Общий поток : 2223 Кбит/сек
Программа кодирования : VirtualDubMod 1.5.10.2 (build 2540/release)
Библиотека кодирования : VirtualDubMod build 2540/release

Видео
Идентификатор : 0
Формат : MPEG-4 Visual
Профиль формата : Advanced Simple@L5
Параметр BVOP формата : 2
Параметр QPel формата : Нет
Параметр GMC формата : Без точки перехода
Параметр матрицы формата : Default (H.263)
Идентификатор кодека : XVID
Идентификатор кодека/Подсказка : XviD
Продолжительность : 1 ч. 28 м.
Битрейт : 1830 Кбит/сек
Ширина : 720 пикселей
Высота : 304 пикселя
Соотношение сторон : 2,35:1
Частота кадров : 23,976 кадра/сек
Цветовое пространство : YUV
Субдискретизация насыщенности : 4:2:0
Битовая глубина : 8 бит
Тип развёртки : Прогрессивная
Метод сжатия : С потерями
Бит/(Пиксели*Кадры) : 0.349
Размер потока : 1,12 Гбайт (82%)
Библиотека кодирования : XviD 1.2.1 (UTC 2008-12-04)

Аудио
Идентификатор : 1
Формат : AC-3
Формат/Информация : Audio Coding 3
Расширение режима : CM (complete main)
Параметр Endianness формата : Big
Идентификатор кодека : 2000
Продолжительность : 1 ч. 28 м.
Вид битрейта : Постоянный
Битрейт : 384 Кбит/сек
Каналы : 6 каналов
Расположение каналов : Front: L C R, Side: L R, LFE
Частота : 48,0 КГц
Битовая глубина : 16 бит
Метод сжатия : С потерями
Размер потока : 242 Мбайт (17%)
Выравнивание : Разделение по промежуткам
Продолжительность промежутка : 42 мс. (1,00 видеокадр)
Время предзагрузки промежутка : 500 мс.

pb.wtf



Скачать Заложник через торрент http://i48.fastpic.ru/big/2013/0602/f3/cc05be01309928a877579c9ff158e7f3.png Скачать фильм Заложник через торрент бесплантно в хорошем качестве Описание: Детектив, разыскиваемый за убийство, похищает журналиста и удерживает его в заложниках . Им обоим предстоит сделать много опасных ... 8.9 10 22
Info! Золотая раздача, скачанное не засчитывается.
Торрент: Зарегистрирован [2013-06-02 19:42] · скачан: 375 раз
Статус: √ проверено
Размер: 1.37 GB
Как cкачать? Как скачать Заложник через торрент | qTorrent

% Раздел Тема Автор DL S | L
T Фильмы [HD 720p, 1080p] (Хороший звук DUB, MVO) [ 4.63 GB ] Пленник / Заложник / Captive [2015 BDRip 720p] - -Lexx- Скачать
1 | 0

28-11-2019 20:33  

Отключить всю рекламу на сайте

    Дорогой пользователь! Огромная просьба, поблагодарите релизера, оцените раздачу и оставьте свои комментарий, если Вы скачали Заложник через торрент бесплатно! Внесите свою лепту в развитие PiratBit!
    Комментировать посты могут только пользователи прошедшие не сложную регистрацию
    Показать сообщения:    

    Заложник через торрент
    Скачать бесплатно Заложник
    Заложник скачать торрент
    Заложник смотреть онлайн
    Cкачать фильм Заложник бесплатно
    Заложник скачать торрент в хорошем качестве
    Заложник смотреть онлайн бесплатно в хорошем качестве


    Вы не можете начинать темы
    Вы не можете отвечать на сообщения
    Вы не можете редактировать свои сообщения
    Вы не можете удалять свои сообщения
    Вы не можете голосовать в опросах
    Вы не можете прикреплять файлы к сообщениям
    Вы можете скачивать файлы