Всегда рабочее зеркало без VPN и Proxy просто перед .vidak.icu напиши любое слово или цифру, Пример http://23p.vidak.icu

>

7.4

iTunes

7.4

2 сезон

6.6

iTunes

1

7.4

2 сезон

7.2

iTunes

6.0

MVO

13

6.1

iTunes

8.3

Пиратка

30

ULTIMATE

pack

9.9

Лицензия

ВАЖНО

ИГРА 18+

pack

7.3

RePack

MK11

7.7

RePack

jed

7.8

RePack

fifa19

8.5

RePack

RDR2

RePack

NEED FOR SPEED™ PAYBACK

1 сезон

9 сезон

Бесстыжие 9 сезон

Все сериалы

все сериалы на PB.wtf

RePack

FAR CRY 5

Anonymous, добрый день, мы катастрофически не успеваем собрать деньги на оплату серверов, помогите нам пожалуйста 5,10,15р., для нас важна любая помощь . В качестве благодарности мы отключим Вам всю рекламу на сайте (укажите свой ник в строку Ваше имя)!

×
  
Magnet ссылка

Паркер / Parker (Тейлор Хэкфорд / Taylor Hackford) [2013, США, боевик, триллер, криминал, HDRip] AVO pb.wtf

Паркер через торрент pb.wtf

Размер: 749 MB | Добавлен: 8 лет 7 мес. назад | Торрент скачан:231 раз
Смотреть онлайн Паркер | Скачать    Ребята, помогите собрать деньги на оплату серверов!!!

03-06-2013 06:55 Паркер Скачать торрент  

Паркер / Parker
Страна: США
Жанр: боевик, триллер, криминал
Год выпуска: 2013
Продолжительность: 01:58:40
Перевод: Авторский (одноголосый, закадровый) - Гаврилов
Cубтитры: нет

Режиссер: Тейлор Хэкфорд / Taylor Hackford

В ролях: Джейсон Стэтхем, Дженнифер Лопез, Ник Нолти, Майкл Чиклис, Клифтон Коллинз мл., Уенделл Пирс, Эмма Бут, Пэтти ЛюПон, Дэниэл Бернхард, Кирк Балц

Описание: Главный герой — профессиональный вор, руководствующийся собственным моральным кодексом, но способный запросто отправить на тот свет любого, кто перейдет ему дорогу.

Качество видео: HDRip
Формат видео: AVI
Видео кодек: XviD
Аудио кодек: MP3
Видео: 624x256 (2.44:1), 23.976 fps, XviD build 50 ~746 kbps avg, 0.19 bit/pixel
Аудио: 48 kHz, MPEG Layer 3, 2 ch, ~128.00 kbps avg
Раздача от:
D:Parker.2013.HDRip.AVO.745mb.[YTN]_by_dexter_lex.avi
General
Complete name : D:Parker.2013.HDRip.AVO.745mb.[YTN]_by_dexter_lex.avi
Format : AVI
Format/Info : Audio Video Interleave
File size : 749 MiB
Duration : 1h 58mn
Overall bit rate : 883 Kbps
Writing application : VirtualDubMod 1.5.10.3 | www.virtualdub-fr.org || (build 2550/release)
Writing library : VirtualDubMod build 2550/release
Video #0
ID : 0
Format : MPEG-4 Visual
Format profile : Advanced Simple@L5
Format settings, BVOP : 1
Format settings, QPel : No
Format settings, GMC : No warppoints
Format settings, Matrix : Custom
Codec ID : XVID
Codec ID/Hint : XviD
Duration : 1h 58mn
Bit rate : 746 Kbps
Width : 624 pixels
Height : 256 pixels
Display aspect ratio : 2.44:1
Frame rate : 23.976 fps
Color space : YUV
Chroma subsampling : 4:2:0
Bit depth : 8 bits
Scan type : Progressive
Compression mode : Lossy
Bits/(Pixel*Frame) : 0.195
Stream size : 633 MiB (84%)
Writing library : XviD 1.2.1 (UTC 2008-12-04)
Audio #1
ID : 1
Format : MPEG Audio
Format version : Version 1
Format profile : Layer 3
Codec ID : 55
Codec ID/Hint : MP3
Duration : 1h 58mn
Bit rate mode : Constant
Bit rate : 128 Kbps
Channel(s) : 2 channels
Sampling rate : 48.0 KHz
Compression mode : Lossy
Stream size : 109 MiB (14%)
Alignment : Aligned on interleaves
Interleave, duration : 42 ms (1.00 video frame)
Interleave, preload duration : 504 ms
Writing library : LAME3.99r
Encoding settings : -m s -V 4 -q 2 -lowpass 17 -b 128
http://multi-up.com/871969
pb.wtf



Скачать Паркер через торрент http://i48.fastpic.ru/big/2013/0506/17/cdf05dc5aeeb51838c6f46e70a695b17.jpg Скачать, смотреть онлайн Паркер бесплантно в хорошем качестве Описание: Главный герой — вор, руководствующийся собственным моральным кодексом, но способный запросто отправить на тот ... 10 10 7
Info! Золотая раздача, скачанное не засчитывается.
Торрент: Зарегистрирован [2013-06-03 06:55] · скачан: 231 раз
Статус: √ проверено
Размер: 749 MB
Как cкачать? Как скачать Паркер через торрент | UTorrent

% Раздел Тема Автор DL S | L
Фильмы [HD 720p, 1080p] (Хороший звук DUB, MVO) [ 9.58 GB ] Паркер / Parker [2013 BDRip 1080p] DUB 2xAVO Леонид Ильич Скачать
1 | 0
Фильмы 2013 (Звук TS, Cam, VO, DVO) [ 1.46 GB ] Паркер / Parker [2013 HDRip] AVO dexter lex Скачать
1 | 0

28-11-2019 20:33  

Отключить всю рекламу на сайте

    Дорогой пользователь! Огромная просьба, поблагодарите релизера, оцените раздачу и оставьте свои комментарий, если Вы скачали Паркер через торрент бесплатно!
    Комментировать посты могут только пользователи прошедшие не сложную регистрацию
    Показать сообщения:    

    Паркер через торрент
    Скачать бесплатно Паркер
    Паркер скачать торрент
    Паркер смотреть онлайн
    Cкачать фильм Паркер бесплатно
    Паркер скачать торрент в хорошем качестве
    Паркер смотреть онлайн бесплатно в хорошем качестве


    Вы не можете начинать темы
    Вы не можете отвечать на сообщения
    Вы не можете редактировать свои сообщения
    Вы не можете удалять свои сообщения
    Вы не можете голосовать в опросах
    Вы не можете прикреплять файлы к сообщениям
    Вы можете скачивать файлы