Доктор Стрэндж

Лицензия

Добыча

MVO

Дом дракона

1 сезон

Тор

Лицензия

Мэверик

Лицензия

Там, где раки поют

MVO

Властелин колец

1 сезон

Ultimate

pack

Рекомендуем

30

Repack

ВАЖНО

ВАЖНО

Ghostwire

RePack

jed

RePack

nioh2

RePack

RDR2

RePack

NEED FOR SPEED™ PAYBACK

RePack

скачать торрент

Кинопоиск HD

Острые козырьки 6 сезон

6 сезон

FAR CRY 6

RePack

скачать торрент

Лицензия

скачать торрент

MVO

1

1 сезон

скачать торрент

1 сезон

скачать торрент

Лицензия

  

Легион / Legion [x264] (Скотт Чарльз Стюарт) [2009 г., ужасы, фэнтези, боевик, HDRip, Дубляж, лицензия]

Легион через торрент pb.wtf

Размер: 1.36 GB | Добавлен: 9 лет 4 мес. назад | Торрент скачан:425 раз
Смотреть онлайн Легион | Скачать   

03-06-2013 16:55 Легион Скачать торрент  

Легион / Legion
Год выпуска: 2009
Страна: США
Жанр: ужасы, фэнтези, боевик,
Продолжительность: 100 мин. / 01:40
Перевод: Дубляж, Лицензия

Режиссер: Скотт Чарльз Стюарт
Продюссер: Дэвид Ланкастер, Мишель Литвак, Стив Бесвик
Сценарий: Питер Шинк, Скотт Чарльз Стюарт

Бюджет: $26 000 000
Премьера в мире: 21 января 2010

IMDB 5.10 (53 972)


В ролях: Пол Беттани, Лукас Блэк, Тайриз Гибсон, Эдрианн Палики, Чарльз С. Даттон, Джон Тенни, Кевин Дюран, Уилла Холланд, Кейт Уолш, Деннис Куэйд, Всеволод Кузнецов, Александр Гаврилин, Александр Носков, Наталья Фищук, Алексей Колган,

Описание: Бог окончательно разуверился в человечестве и послал ангелов смерти стереть свое творение с лица земли. На защиту людей встал лишь архангел Михаил, объединив под своим командованием горстку изгоев, которые в закусочной посреди пустыни терпеливо ожидают рождения Мессии.

Качество: HDRip
Формат: MKV
Видео кодек: H.264
Аудио кодек: AC3
Видео: AVC, 720x304 (2.35:1), 23.976 fps, 1 503 Kbps (0.286 bit/pixel)
Аудио#1: AC-3, 48.0 KHz, 6 ch, 448 Kbps, CBR Rus

Релиз от: xGhost
General
Unique ID : 215628776977493203281236669519025528324 (0xA23897832BAF04EFBF1F4FE12D51DE04)
Complete name : C:UsersBatManDesktopLegion.2010.D.x264.HDRip.1400MB.mkv
Format : Matroska
Format version : Version 2
File size : 1.36 GiB
Duration : 1h 40mn
Overall bit rate : 1 950 Kbps
Encoded date : UTC 2013-06-03 16:14:08
Writing application : mkvmerge v4.0.0 ('The Stars were mine') сборка от Jun 6 2010 16:18:42
Writing library : libebml v1.0.0 + libmatroska v1.0.0

Video
ID : 1
Format : AVC
Format/Info : Advanced Video Codec
Format profile : [email protected]
Format settings, CABAC : Yes
Format settings, ReFrames : 12 frames
Codec ID : V_MPEG4/ISO/AVC
Duration : 1h 40mn
Bit rate : 1 503 Kbps
Width : 720 pixels
Height : 304 pixels
Display aspect ratio : 2.35:1
Frame rate mode : Constant
Frame rate : 23.976 fps
Color space : YUV
Chroma subsampling : 4:2:0
Bit depth : 8 bits
Scan type : Progressive
Bits/(Pixel*Frame) : 0.286
Stream size : 1.02 GiB (75%)
Writing library : x264 core 130 r2273 b3065e6
Encoding settings : cabac=1 / ref=12 / deblock=1:-3:-3 / analyse=0x3:0x113 / me=umh / subme=7 / psy=1 / psy_rd=1.00:0.15 / mixed_ref=1 / me_range=32 / chroma_me=1 / trellis=1 / 8x8dct=1 / cqm=0 / deadzone=21,11 / fast_pskip=1 / chroma_qp_offset=-2 / threads=6 / lookahead_threads=1 / sliced_threads=0 / nr=0 / decimate=1 / interlaced=0 / bluray_compat=0 / constrained_intra=0 / bframes=3 / b_pyramid=2 / b_adapt=1 / b_bias=0 / direct=1 / weightb=1 / open_gop=0 / weightp=2 / keyint=240 / keyint_min=22 / scenecut=40 / intra_refresh=0 / rc_lookahead=40 / rc=2pass / mbtree=1 / bitrate=1503 / ratetol=1.0 / qcomp=0.60 / qpmin=10 / qpmax=51 / qpstep=4 / cplxblur=20.0 / qblur=0.5 / vbv_maxrate=50000 / vbv_bufsize=62500 / nal_hrd=none / ip_ratio=1.40 / aq=1:1.00
Default : No
Forced : No

Audio
ID : 2
Format : AC-3
Format/Info : Audio Coding 3
Mode extension : CM (complete main)
Format settings, Endianness : Big
Codec ID : A_AC3
Duration : 1h 40mn
Bit rate mode : Constant
Bit rate : 448 Kbps
Channel(s) : 6 channels
Channel positions : Front: L C R, Side: L R, LFE
Sampling rate : 48.0 KHz
Bit depth : 16 bits
Compression mode : Lossy
Stream size : 321 MiB (23%)
Default : No
Forced : No





Легион скачать торрент





Скачать Легион через торрент http://i6.fastpic.ru/thumb/2010/0420/c9/c5088dd244b7513fb39de7457b0bbec9.jpeg Скачать, смотреть онлайн Легион бесплантно в хорошем качестве Описание: Бог окончательно разуверился в человечестве и послал ангелов смерти стереть свое творение с лица земли. На защиту людей встал ... 9.2 10 25
Info! Золотая раздача, скачанное не засчитывается.
Торрент: Зарегистрирован [2013-06-03 16:55] · скачан: 425 раз
Статус: √ проверено
Размер: 1.36 GB
Как cкачать? Как скачать Легион через торрент | UTorrent

% Раздел Тема Автор DL S | L
Фильмы 2019-2020 [DVDrip, WEB-DLRip, HDrip] (DUB, MVO) [ 1.46 GB ] Легионер: Беги или умри / Legionnaire's Trail / The Legion | iTunes | HDRip bober100 Скачать
4 | 0
Фильмы 2019-2020 [DVDrip, WEB-DLRip, HDrip] (DUB, MVO) [ 1.95 GB ] Легионер: Беги или умри / Legionnaire's Trail / The Legion | iTunes | HDRip-AVC Lithuania Скачать
2 | 0
Фильмы [HD 720p, 1080p] (Хороший звук DUB, MVO) [ 8.18 GB ] Легионер: Беги или умри / Legionnaire's Trail / The Legion | iTunes | 1080p bober100 Скачать
1 | 0
Фильмы [HD 720p, 1080p] (Хороший звук DUB, MVO) [ 4.41 GB ] Легионер: Беги или умри / Legionnaire's Trail / The Legion | iTunes | 720p bober100 Скачать
1 | 0
Фильмы (HD 720p, 1080p) (48-60 fps) [ 9.49 GB ] Легион / Legion | DUB | 720p, 60fps, DUB mimok Скачать
1 | 0
Фильмы [HD 720p, 1080p] (Хороший звук DUB, MVO) [ 6.42 GB ] Легионер / Legionnaire | MVO + DVO + 3x AVO | 720p от KORSAR filbi1976 Скачать
1 | 0
Зарубежные сериалы [ 31.46 GB ] Легион / Legion / Сезон: 1 / Серии: 1-8 из 8 | TVShows | 1080p bober100 Скачать
1 | 0



Последний раз редактировалось: TekkenxD (2013-06-03 17:46), всего редактировалось 1 раз

28-11-2019 20:33  

Отключить вcю реклaмy на сайте

03-06-2013 17:44 Легион Скачать торрент  

боевикслова,ребят,вы что употребляете???



03-06-2013 17:47 Легион Скачать торрент  

за компанию ужасыслова,фэнтeзислова,будет шикарно.



03-06-2013 18:59 Легион Скачать торрент  

Одноразовый фильм



03-06-2013 20:58 Легион Скачать торрент  

Все самое интересное в трейлере показано )



    Дорогой пользователь! Огромная просьба, поблагодарите релизера, оцените раздачу и оставьте свои комментарий, если Вы скачали Легион через торрент бесплатно!!
    Комментировать посты могут только пользователи прошедшие не сложную регистрацию
    Показать сообщения:    


    Легион через торрент
    Скачать бесплатно Легион
    Легион скачать торрент
    Легион смотреть онлайн
    Cкачать фильм Легион бесплатно
    Легион скачать торрент в хорошем качестве
    Легион смотреть онлайн бесплатно в хорошем качестве
    Вы не можете начинать темы
    Вы не можете отвечать на сообщения
    Вы не можете редактировать свои сообщения
    Вы не можете удалять свои сообщения
    Вы не можете голосовать в опросах
    Вы не можете прикреплять файлы к сообщениям
    Вы можете скачивать файлы