2 сезон

iTunes

MVO

1

2 сезон

iTunes

iTunes

1 сезон

RePack

30

Ultimate

ВАЖНО

ИГРА 18+

pack

RePack

MK11
pack

Легкие деньги

RePack

jed

RePack

fifa19

RePack

RDR2

RePack

NEED FOR SPEED™ PAYBACK

4 сезон

9 сезон

Бесстыжие 9 сезон

Все сериалы

все сериалы на PB.wtf

RePack

FAR CRY 5

Anonymous, добрый день, мы не успеваем собрать деньги на оплату серверов за декабрь и январь, помогите нам пожалуйста в это трудное время. В качестве благодарности мы отключим Вам всю рекламу на сайте (укажите свой ник в строку Ваше имя)!

×
  
Magnet ссылка

Стукач / Snitch (Рик Роман Во) [2013 г., триллер, драма, криминал, BDRip-AVC, Дубляж, лицензия] pb.wtf

Стукач через торрент pb.wtf

Размер: 2.14 GB | Добавлен: 7 лет 7 мес. назад | Торрент скачан:521 раз
Скачать  

03-06-2013 22:46 Стукач Скачать торрент  

Стукач / Snitch
Год выпуска: 2013
Страна: США
Жанр: триллер, драма, криминал
Продолжительность: 112 мин. / 01:52:50
Перевод: Дубляж, Лицензия
Субтитры: Английские, русские |отключаемые|

Режиссер: Рик Роман Во
Продюссер: Тобин Армруст, Александр Ив Бруннер, Гай Ист
Сценарий: Джастин Хэйс, Рик Роман Во

Бюджет: $15 000 000
Премьера в мире: 21 февраля 2013




В ролях: Дуэйн Джонсон, Барри Пеппер, Джон Бернтал, Сьюзен Сарандон, Майкл К. Уильямс, Рафи Гаврон, Мелина Канакаредес, Надин Веласкес, Бенджамин Брэтт, Лела Лорен, Денис Беспалый, Василий Дахненко, Андрей Бархударов, Мария Овчинникова, Всеволод Кузнецов

Описание: Ради спасения сына, которому грозит срок за продажу наркотиков, отец идет на сделку с полицией. Он должен внедриться в самое сердце наркомафии.

Качество: BDRip-AVC
Формат: MKV
Видео кодек: H.264
Аудио кодек: AC3
Видео: H.264, 1272x530 (2.40:1), 23.976 fps, 1964 Кbps, 0.122 bit/pixel
Аудио#1: 48 kHz, AC3 Dolby Digital, 3/2 (L,C,R,l,r) + LFE ch, 384.00 kbps | RUS
Аудио#2: 48 kHz, AC3 Dolby Digital, 3/2 (L,C,R,l,r) + LFE ch, 384.00 kbps | ENG










D:Stukach.2013.D.BDRip
General
Unique ID : 231669485338507631968473821101706225507 (0xAE49EB7EA8D76830BE48DC362FC8A763)
Complete name : D:Stukach.2013.D.BDRip
Format : Matroska
Format version : Version 4 / Version 2
File size : 2.14 GiB
Duration : 1h 51mn
Overall bit rate : 2 733 Kbps
Movie name :макс1
Encoded date : UTC 2013-05-28 18:16:28
Writing application : mkvmerge v5.9.0 ('On The Loose') built on Dec 15 2012 16:39:58
Writing library : libebml v1.3.0 + libmatroska v1.4.0
Video #1
ID : 1
Format : AVC
Format/Info : Advanced Video Codec
Format profile : High@L4.1
Format settings, CABAC : Yes
Format settings, ReFrames : 11 frames
Codec ID : V_MPEG4/ISO/AVC
Duration : 1h 51mn
Bit rate : 1 964 Kbps
Width : 1 272 pixels
Height : 530 pixels
Display aspect ratio : 2.40:1
Frame rate : 23.976 fps
Color space : YUV
Chroma subsampling : 4:2:0
Bit depth : 8 bits
Scan type : Progressive
Bits/(Pixel*Frame) : 0.122
Stream size : 1.49 GiB (70%)
Title : Snitch
Writing library : x264 core 125 r2208 d9d2288
Encoding settings : cabac=1 / ref=11 / deblock=1:-2:-2 / analyse=0x3:0x133 / me=umh / subme=11 / psy=1 / psy_rd=1.10:0.04 / mixed_ref=1 / me_range=48 / chroma_me=1 / trellis=2 / 8x8dct=1 / cqm=0 / deadzone=21,11 / fast_pskip=0 / chroma_qp_offset=-3 / threads=9 / lookahead_threads=1 / sliced_threads=0 / nr=0 / decimate=1 / interlaced=0 / bluray_compat=0 / constrained_intra=0 / bframes=12 / b_pyramid=2 / b_adapt=2 / b_bias=0 / direct=3 / weightb=1 / open_gop=0 / weightp=2 / keyint=240 / keyint_min=23 / scenecut=40 / intra_refresh=0 / rc_lookahead=150 / rc=2pass / mbtree=1 / bitrate=1964 / ratetol=1.0 / qcomp=0.73 / qpmin=0 / qpmax=69 / qpstep=4 / cplxblur=20.0 / qblur=0.5 / vbv_maxrate=50000 / vbv_bufsize=62500 / nal_hrd=none / ip_ratio=1.35 / aq=1:0.70
Language : English
Default : Yes
Forced : No
Audio #2
ID : 2
Format : AC-3
Format/Info : Audio Coding 3
Mode extension : CM (complete main)
Format settings, Endianness : Big
Codec ID : A_AC3
Duration : 1h 51mn
Bit rate mode : Constant
Bit rate : 384 Kbps
Channel(s) : 6 channels
Channel positions : Front: L C R, Side: L R, LFE
Sampling rate : 48.0 KHz
Bit depth : 16 bits
Compression mode : Lossy
Stream size : 307 MiB (14%)
Title : Dub | DD 5.1 @ 384 kbps - R5
Language : Russian
Default : Yes
Forced : Yes
Audio #3
ID : 3
Format : AC-3
Format/Info : Audio Coding 3
Mode extension : CM (complete main)
Format settings, Endianness : Big
Codec ID : A_AC3
Duration : 1h 51mn
Bit rate mode : Constant
Bit rate : 384 Kbps
Channel(s) : 6 channels
Channel positions : Front: L C R, Side: L R, LFE
Sampling rate : 48.0 KHz
Bit depth : 16 bits
Compression mode : Lossy
Stream size : 307 MiB (14%)
Title : Original | DD 5.1 @ 384 kbps
Language : English
Default : No
Forced : No
Text #4
ID : 4
Format : UTF-8
Codec ID : S_TEXT/UTF8
Codec ID/Info : UTF-8 Plain Text
Language : Russian
Default : No
Forced : No
Text #5
ID : 5
Format : UTF-8
Codec ID : S_TEXT/UTF8
Codec ID/Info : UTF-8 Plain Text
Language : English
Default : No
Forced : No


Стукач скачать торрент


pb.wtf



Скачать Стукач через торрент http://pic.kartinco.top/images/2/macqfi337r.png Скачать фильм Стукач через торрент бесплантно в хорошем качестве Описание: Ради спасения сына, которому грозит срок за продажу наркотиков, отец идет на сделку с полицией. Он должен внедриться в самое ... 9.2 10 19
Info! Золотая раздача, скачанное не засчитывается.
Торрент: Зарегистрирован [2013-06-03 22:46] · скачан: 521 раз
Статус: √ проверено
Размер: 2.14 GB
Как cкачать? Как скачать Стукач через торрент | UTorrent

% Раздел Тема Автор DL S | L
Фильмы 2012 [ 2.16 GB ] Стукач / Snitch [2012 HDRip ] coc900 Скачать
1 | 0
Фильмы (Blu-ray, BD-Remux, HDDVD) [ 42.92 GB ] Стукач / Snitch [2013 Blu-ray ] Бумер Скачать
1 | 0
Фильмы 2013 [DVDrip, WEB-DLRip, HDrip] [ 1.47 GB ] Стукач / Snitch [2013 НDRip] лицензия 1.46 Гб diletant Скачать
1 | 0
Фильмы 2013 [DVDrip, WEB-DLRip, HDrip] [ 2.05 GB ] Стукач / Snitch [2013 HDRip лицензия] Lyfe Скачать
1 | 0
Фильмы [HD 720p, 1080p] (Хороший звук DUB, MVO) [ 4.61 GB ] Стукач / Snitch [2013 BDRip 720p лицензия] Lyfe Скачать
1 | 0
Фильмы [HD 720p, 1080p] (Хороший звук DUB, MVO) [ 9.14 GB ] Стукач / Snitch [2013 BDRip 1080p лицензия] Lyfe Скачать
1 | 0
Фильмы (Blu-ray, BD-Remux, HDDVD) [ 18.61 GB ] Стукач / Snitch [2013 BDRemux 1080p + Оригинал] Trava-HD Скачать
1 | 0

28-11-2019 20:33  

Отключить всю рекламу на сайте

04-06-2013 07:51 Стукач Скачать торрент  

фильм не понравился.pb.wtf



09-06-2013 00:30 Стукач Скачать торрент  

ЩАС ЗАЦЕНИМ, СПАСИБКИ!!!pb.wtf



    Дорогой пользователь! Огромная просьба, поблагодарите релизера, оцените раздачу и оставьте свои комментарий, если Вы скачали Стукач через торрент бесплатно! Внесите свою лепту в развитие PiratBit!
    Комментировать посты могут только пользователи прошедшие не сложную регистрацию
    Показать сообщения:    

    Стукач через торрент
    Скачать бесплатно Стукач
    Стукач скачать торрент
    Стукач смотреть онлайн
    Cкачать фильм Стукач бесплатно
    Стукач скачать торрент в хорошем качестве
    Стукач смотреть онлайн бесплатно в хорошем качестве


    Вы не можете начинать темы
    Вы не можете отвечать на сообщения
    Вы не можете редактировать свои сообщения
    Вы не можете удалять свои сообщения
    Вы не можете голосовать в опросах
    Вы не можете прикреплять файлы к сообщениям
    Вы можете скачивать файлы