новый адрес
Ссылка на приватное зеркало всего за 1$. Внимание количество ограничено!!!

iTunes

1+1

iTunes

мы

WEB-DL

1

iTunes

Чернобыль

iTunes

Ральф против интернета

Лицензия

ПШазам

Лицензия

Оно 2

Лицензия

30
pack

Вам бонус

ВАЖНО

!!Акция!!

Alien_RageХит недели

RePack

Resident Evil 21

ИГРА 18+

pack

RePack

jed

!!Акция!!

Alien_Rage

RePack

fifa19

RePack

Assassins Creed: Odyssey

RePack

NEED FOR SPEED™ PAYBACK

3 сезон

9 сезон

Бесстыжие 9 сезон

Все сериалы

все сериалы на PB.wtf

RePack

FAR CRY 5
Ребята, катастрофически не хватает 1900р. для оплаты серверов за Октябрь (всвязи с блокировками трафик упал в 3 раза), 1-2р., выручайте.
  

Молот богов / Hammer of the Gods (Фэррен Блэкберн) [2013 г., боевик, WEB-DLRip, VO] [den904] pb.wtf

Молот богов через торрент pb.wtf

Размер: 1.46 GB | Добавлен: 6 лет 6 мес. назад | Торрент скачан:1977 раз
Скачать  

04-06-2013 17:07 Молот богов Скачать торрент  

Молот богов / Hammer of the Gods
Год выпуска: 2013
Страна: Великобритания
Жанр: боевик,
Продолжительность: 01:38:43
Перевод: Любительский одноголосый[den904], перевод [Janetta], работа со звуком [spee2k]

Режиссер: Фэррен Блэкберн
Продюссер: Руперт Престон, Хуберта Фон Лиэль, Кейт Гловер
Сценарий: Мэттью Рид

Премьера в мире: 9 мая 2013

IMDB 5.90 (51)


В ролях: Чарли Бьюли, Клайв Стэнден, Джеймс Космо, Эллиот Кауэн, Глайнис Барбер, Айван Кэй, Майкл Джибсон, Гай Флэнеган, Тео Барклем-Биггз, Александра Доулинг,

Описание: Страстный молодой человек превращается в жестокого воина, во время своих путешествий в поисках давно потерянного брата.

Качество: WEB-DLRip
Формат: AVI
Видео кодек: XviD
Аудио кодек: AC3
Видео: MPEG4, XviD, 720x304 (2.35:1), 23.976 fps, 1 716 Kbps (0.327 bit/pixel)
Аудио#1: AC-3, 48.0 KHz, 6 ch, 384 Kbps, CBR

Общее
Полное имя : D:ТорентыHammer.of.the.Gods.2013.WEB-DLRip.1400Mb.avi
Формат : AVI
Формат/Информация : Audio Video Interleave
Размер файла : 1,46 Гбайт
Продолжительность : 1 ч. 38 м.
Общий поток : 2109 Кбит/сек
Программа кодирования : VirtualDubMod 1.5.10.2 (build 2540/release)
Библиотека кодирования : VirtualDubMod build 2540/release

Видео
Идентификатор : 0
Формат : MPEG-4 Visual
Профиль формата : Advanced Simple@L5
Параметр BVOP формата : 2
Параметр QPel формата : Нет
Параметр GMC формата : Без точки перехода
Параметр матрицы формата : Default (H.263)
Идентификатор кодека : XVID
Идентификатор кодека/Подсказка : XviD
Продолжительность : 1 ч. 38 м.
Битрейт : 1716 Кбит/сек
Ширина : 720 пикселей
Высота : 304 пикселя
Соотношение сторон : 2,35:1
Частота кадров : 23,976 кадра/сек
Цветовое пространство : YUV
Субдискретизация насыщенности : 4:2:0
Битовая глубина : 8 бит
Тип развёртки : Прогрессивная
Метод сжатия : С потерями
Бит/(Пиксели*Кадры) : 0.327
Размер потока : 1,19 Гбайт (81%)
Библиотека кодирования : XviD 1.2.1 (UTC 2008-12-04)

Аудио
Идентификатор : 1
Формат : AC-3
Формат/Информация : Audio Coding 3
Расширение режима : CM (complete main)
Параметр Endianness формата : Big
Идентификатор кодека : 2000
Продолжительность : 1 ч. 38 м.
Вид битрейта : Постоянный
Битрейт : 384 Кбит/сек
Каналы : 6 каналов
Расположение каналов : Front: L C R, Side: L R, LFE
Частота : 48,0 КГц
Битовая глубина : 16 бит
Метод сжатия : С потерями
Размер потока : 272 Мбайт (18%)
Выравнивание : Разделение по промежуткам
Продолжительность промежутка : 42 мс. (1,00 видеокадр)
Время предзагрузки промежутка : 500 мс.


Молот богов скачать торрент


pb.wtf



Скачать Молот богов через торрент http://i47.fastpic.ru/big/2013/0604/47/824c7fd4d00e7f33389f01b841152d47.png Скачать фильм Молот богов через торрент бесплантно в хорошем качестве Описание: Страстный молодой человек превращается в жестокого воина, во время своих путешествий в поисках давно потерянного ... 9 10 70
Info! Золотая раздача, скачанное не засчитывается.
Торрент: Зарегистрирован [2013-06-04 17:07] · скачан: 1 977 раз
Статус: √ проверено
Размер: 1.46 GB
Как cкачать? Как скачать Молот богов через торрент | qTorrent

% Раздел Тема Автор DL S | L
# Фильмы [HD 720p, 1080p] (Хороший звук DUB, MVO) [ 6.92 GB ] Молот богов / Hammer of the Gods [2013 BDRip 1080p]MVO Assasinca Скачать
1 | 0
Фильмы 2013 (Звук TS, Cam, VO, DVO) [ 2.06 GB ] Молот богов / Hammer of the Gods [2013 HDRip DVO] PsYcho Скачать
1 | 0
Фильмы 2009 [ 2.23 GB ] Тор: Молот богов / Thor: Hammer Of The Gods [2009 BDRip-AVC] smaster Скачать
1 | 0
Фильмы 2009 [ 1.09 GB ] Молот богов / Hammer of the Gods [2009 DVDRip] aspace Скачать
1 | 0


Последний раз редактировалось: Ворон (2013-06-04 17:55), всего редактировалось 1 раз

28-11-2019 20:33  

Отключить всю рекламу на сайте

04-06-2013 17:19 Молот богов Скачать торрент  

как качество , смотрибельно ?pb.wtf



04-06-2013 17:27 Молот богов Скачать торрент  

IMDB 4,6 откуда 5,9?pb.wtf



04-06-2013 17:31 Молот богов Скачать торрент  

alexx145 писал(а):

как качество , смотрибельно ?

А вы сами определить не можете? помогу вам.
1. В теме есть сэмпл, отрывок из раздаваемого файла, заливается для определения качества звука и видео данного файла, весит он не много и его можно скачать и самому проверить.
2.WEB-DLRip: Это запись трансляции через Интернет. На данный момент большинство исходного материала берется с платной службы iTunes Store. Из явных плюсов: отсутствие всевозможных логотипов, эпизодически всплывающего телевизионного мусора и присутствие финальных титров. В целом, это новый вид рипов, не уступающих по качеству DVDRipам. И возможно в скором времени WEB-DLRip станет конкурентным аналогом BDRipа. Но, не стоит забывать, что 80% качества материала зависит от умения и прямоты рук рипующего.
3.Одноголосый закадровый (На фоне оригинала звучит голос одного переводчика).pb.wtf



04-06-2013 17:41 Молот богов Скачать торрент  

одна строка очень улыбнула!

"Бюджет: 9 мая 2013" Это сколько ?

Да астати как фильм кто скачал и посмотрел отпишетесь! смотрел Трейлер что то не понял!pb.wtf



04-06-2013 18:32 Молот богов Скачать торрент  

Надеюсь актеры из сериала Викинги и здесь сыграют хорошо!)pb.wtf



04-06-2013 19:01 Молот богов Скачать торрент  

а что сюжет фильма "про страстного молодого человека, который превратился в жестокого воина" никого не заинтриговал?))))pb.wtf



04-06-2013 20:20 Молот богов Скачать торрент  

3 из 10 ( я бы больше не дал)pb.wtf



05-06-2013 02:05 Молот богов Скачать торрент  

описание жара))pb.wtf



05-06-2013 06:07 Молот богов Скачать торрент  

Будет ли многоголосый и когда?pb.wtf



07-06-2013 03:05 Молот богов Скачать торрент  

Цитата:

Описание: Страстный молодой человек превращается в жестокого воина

Спс, этого хватило)pb.wtf



09-06-2013 15:36 Молот богов Скачать торрент  

А мне кинцо понравилось, немного затянуто и довольно темное, но вполне смотрибельно. В кино бы за него не пошел, а дома посмотреть самое то)pb.wtf



09-06-2013 23:08 Молот богов Скачать торрент  

Опят ДЕН-904!!!!! Избавти б....га ради!!!!pb.wtf



15-06-2013 18:08 Молот богов Скачать торрент  

дэн 904 нормлаьно переводит он же джанета ненадо гнать и уважать надо чужой труд быдлоpb.wtf



    Дорогой пользователь! Огромная просьба, поблагодарите релизера, оцените раздачу и оставьте свои комментарий, если Вы скачали Молот богов через торрент бесплатно! Внесите свою лепту в развитие PiratBit!
    Комментировать посты могут только пользователи прошедшие не сложную регистрацию
    Показать сообщения:    

    Молот богов через торрент
    Скачать бесплатно Молот богов
    Молот богов скачать торрент
    Молот богов смотреть онлайн
    Cкачать фильм Молот богов бесплатно
    Молот богов скачать торрент в хорошем качестве
    Молот богов смотреть онлайн бесплатно в хорошем качестве


    Вы не можете начинать темы
    Вы не можете отвечать на сообщения
    Вы не можете редактировать свои сообщения
    Вы не можете удалять свои сообщения
    Вы не можете голосовать в опросах
    Вы не можете прикреплять файлы к сообщениям
    Вы можете скачивать файлы