Ссылка на приватное зеркало всего за 1$. Внимание количество ограничено!!!

iTunes

1+1

iTunes

мы

WEB-DL

1

iTunes

Чернобыль

iTunes

Ральф против интернета

Лицензия

ПШазам

Лицензия

Оно 2

Лицензия

30
pack

Вам бонус

ВАЖНО

!!Акция!!

Alien_RageХит недели

RePack

Resident Evil 21

ИГРА 18+

pack

RePack

jed

!!Акция!!

Alien_Rage

RePack

fifa19

RePack

Assassins Creed: Odyssey

RePack

NEED FOR SPEED™ PAYBACK

3 сезон

9 сезон

Бесстыжие 9 сезон

Все сериалы

все сериалы на PB.wtf

RePack

FAR CRY 5
Ребята, катастрофически не хватает 1900р. для оплаты серверов за Октябрь (всвязи с блокировками трафик упал в 3 раза), 1-2р., выручайте.
  

Серебряный водопад / Silver Falls (Бретт Доноху) [2013 г., ужасы, триллер, WEB-DLRip, DVO] [DeadSno & den904] pb.wtf

Серебряный водопад через торрент pb.wtf

Размер: 1.37 GB | Добавлен: 6 лет 6 мес. назад | Торрент скачан:478 раз
Скачать  

04-06-2013 18:50 Серебряный водопад Скачать торрент  

Серебряный водопад / Silver Falls
Год выпуска: 2013
Страна: США
Жанр: ужасы, триллер,
Продолжительность: 96 мин. / 01:36
Перевод: Любительский двухголосый [DeadSno & den904], перевод [Janetta], работа со звуком [КОЛОБОК]

Режиссер: Бретт Доноху
Продюссер: Рик Дагдэйл, Стив Бачич, Пол Хадсон
Сценарий: Кэм Кэннон, Рэйчел Лонг, Брайан Питтман

Премьера в мире: 28 мая 2013

IMDB 3.90 (74)


В ролях: Эрик Авари, Стив Бачич, Джеймс С. Бёрнс, James Cavlo, Аликс Гиттер, Тадж Келли, Джеймс Ральф, Джейд Рэмси, Никита Рэмси, Тара Вествуд,

Описание: Маленькому городку не дают покоя убитые сёстры-близняшки. Юная Джордан решает найти убийцы девочек и помочь человеку, которого не виновного посадили в тюрьму. Вот только убийца совсем рядом и не тот кем кажется.

Качество: WEB-DLRip
Формат: AVI
Видео кодек: XviD
Аудио кодек: AC3
Видео: MPEG4, XviD, 720x400 (16:9), 23.976 fps, 1 644 Kbps (0.238 bit/pixel)
Аудио#1: AC-3, 48.0 KHz, 6 ch, 384 Kbps, CBR

Общее
Полное имя : D:ТорентыSerebryanyi.vodopad.2013.L2.WEB-DLRip.1400Mb..avi
Формат : AVI
Формат/Информация : Audio Video Interleave
Размер файла : 1,37 Гбайт
Продолжительность : 1 ч. 36 м.
Общий поток : 2037 Кбит/сек
Программа кодирования : VirtualDubMod 1.5.10.3 | www.virtualdub-fr.org || (build 2550/release)
Библиотека кодирования : VirtualDubMod build 2550/release

Видео
Идентификатор : 0
Формат : MPEG-4 Visual
Профиль формата : Advanced Simple@L5
Параметр BVOP формата : 2
Параметр QPel формата : Нет
Параметр GMC формата : Без точки перехода
Параметр матрицы формата : Выборочная
Идентификатор кодека : XVID
Идентификатор кодека/Подсказка : XviD
Продолжительность : 1 ч. 36 м.
Битрейт : 1644 Кбит/сек
Ширина : 720 пикселей
Высота : 400 пикселей
Соотношение сторон : 16:9
Частота кадров : 23,976 кадра/сек
Цветовое пространство : YUV
Субдискретизация насыщенности : 4:2:0
Битовая глубина : 8 бит
Тип развёртки : Прогрессивная
Метод сжатия : С потерями
Бит/(Пиксели*Кадры) : 0.238
Размер потока : 1,10 Гбайт (81%)
Библиотека кодирования : XviD 1.2.1 (UTC 2008-12-04)

Аудио
Идентификатор : 1
Формат : AC-3
Формат/Информация : Audio Coding 3
Расширение режима : CM (complete main)
Параметр Endianness формата : Big
Идентификатор кодека : 2000
Продолжительность : 1 ч. 36 м.
Вид битрейта : Постоянный
Битрейт : 384 Кбит/сек
Каналы : 6 каналов
Расположение каналов : Front: L C R, Side: L R, LFE
Частота : 48,0 КГц
Битовая глубина : 16 бит
Метод сжатия : С потерями
Размер потока : 264 Мбайт (19%)
Выравнивание : Разделение по промежуткам
Продолжительность промежутка : 42 мс. (1,00 видеокадр)
Время предзагрузки промежутка : 500 мс.


Серебряный водопад скачать торрент


pb.wtf



Скачать Серебряный водопад через торрент http://i46.fastpic.ru/big/2013/0604/4b/e8a1c73e74dc6fd1ba1354674e92ba4b.png Скачать фильм Серебряный водопад через торрент бесплантно в хорошем качестве Описание: Маленькому городку не дают покоя убитые сёстры-близняшки. Юная Джордан решает найти убийцы девочек и помочь человеку, которого не ... 9.4 10 32
Info! Золотая раздача, скачанное не засчитывается.
Торрент: Зарегистрирован [2013-06-04 18:50] · скачан: 478 раз
Статус: √ проверено
Размер: 1.37 GB
Как cкачать? Как скачать Серебряный водопад через торрент | qTorrent

28-11-2019 20:33  

Отключить всю рекламу на сайте

05-06-2013 02:14 Серебряный водопад Скачать торрент  

как фильмецpb.wtf



05-06-2013 02:30 Серебряный водопад Скачать торрент  

bizon2902 писал(а):

как фильмец

ниже плинтуса: IMDb: 3.90 (74)pb.wtf



17-06-2013 16:23 Серебряный водопад Скачать торрент  

лажа полнаяpb.wtf



    Дорогой пользователь! Огромная просьба, поблагодарите релизера, оцените раздачу и оставьте свои комментарий, если Вы скачали Серебряный водопад через торрент бесплатно! Внесите свою лепту в развитие PiratBit!
    Комментировать посты могут только пользователи прошедшие не сложную регистрацию
    Показать сообщения:    

    Серебряный водопад через торрент
    Скачать бесплатно Серебряный водопад
    Серебряный водопад скачать торрент
    Серебряный водопад смотреть онлайн
    Cкачать фильм Серебряный водопад бесплатно
    Серебряный водопад скачать торрент в хорошем качестве
    Серебряный водопад смотреть онлайн бесплатно в хорошем качестве


    Вы не можете начинать темы
    Вы не можете отвечать на сообщения
    Вы не можете редактировать свои сообщения
    Вы не можете удалять свои сообщения
    Вы не можете голосовать в опросах
    Вы не можете прикреплять файлы к сообщениям
    Вы можете скачивать файлы