Доктор Стрэндж

Лицензия

Добыча

MVO

Дом дракона

1 сезон

Тор

Лицензия

Мэверик

Лицензия

Там, где раки поют

MVO

Властелин колец

1 сезон

Ultimate

pack

Рекомендуем

30

Repack

ВАЖНО

ВАЖНО

Ghostwire

RePack

jed

RePack

nioh2

RePack

RDR2

RePack

NEED FOR SPEED™ PAYBACK

RePack

скачать торрент

Кинопоиск HD

Острые козырьки 6 сезон

6 сезон

FAR CRY 6

RePack

скачать торрент

Лицензия

скачать торрент

MVO

1

1 сезон

скачать торрент

1 сезон

скачать торрент

Лицензия

  

Нападение на 13-й участок / Assault on Precinct 13 (Жан-Франсуа Рише) [2005 г., боевик, триллер, драма, криминал, BDRip 1080p, Дубляж+Оригинал+Аавторский+Украинский]

Нападение на 13-й участок через торрент pb.wtf

Размер: 13.67 GB | Добавлен: 9 лет 4 мес. назад | Торрент скачан:51 раз
Смотреть онлайн | Скачать   

04-06-2013 20:51 Нападение на 13-й участок Скачать торрент  

«The only people more dangerous that the hardened criminals... are the cops.»
Нападение на 13-й участок / Assault on Precinct 13
Год выпуска: 2005
Страна: США, Франция
Жанр: боевик, триллер, драма, криминал,
Продолжительность: 01:48:49
Перевод: Дубляж + Оригинал
Субтитры: Russian, English, Spanish

Режиссер: Жан-Франсуа Рише




В ролях: Итан Хоук, Лоренс Фишбёрн, Гэбриел Бирн, Мария Белло, Дреа де Маттео, Джон Легуизамо, Брайан Деннехи, Джа Рул, Карри Грэм, Аиша Хиндс,

Описание: Считанные часы остаются до закрытия 13-го полицейского участка. Но пока его сотрудники во главе с сержантом Роуником готовятся к встрече Нового года, снежная буря разворачивает к ним спецавтобус с преступниками. В их числе и только что захваченный гангстер Мэрион Бишоп.

Ничто, казалось бы, не позволит отвлечь полицейских от праздника: пока вооруженные люди в масках не нападают на участок. И блюстители закона вынуждены объединиться с преступниками, чтобы выжить этой ночью!

Качество: BDRip 1080p
Формат: MKV
Видео кодек: H.264
Аудио кодек: AC3
Видео: 1920x800 at 23.976 fps, [email protected], ~13.3 Mbps avg
Аудио#1: Russian: 48 kHz, AC3, 3/2 (L,C,R,l,r) + LFE ch, ~448.00 kbps avg |Дубляж, R5|
Аудио#2: Russian: 48 kHz, AC3, 3/2 (L,C,R,l,r) + LFE ch, ~448.00 kbps avg |Двухголосый закадровый, Tycoon-Studio|
Аудио#3: Russian: 48 kHz, DTS, 3/2 (L,C,R,l,r) + LFE ch, ~768.00 kbps avg |Многоголосый закадровый, Superbit|
Аудио#4: Russian: 48 kHz, DTS, 3/2 (L,C,R,l,r) + LFE ch, ~768.00 kbps avg |Одноголосый закадровый, А.Гаврилов|
Аудио#5: Ukrainian: 48 kHz, AC3, 3/2 (L,C,R,l,r) + LFE ch, ~448.00 kbps avg |Двухголосый закадровый, 1+1|
Аудио#6: English: 48 kHz, DTS, 3/2 (L,C,R,l,r) + LFE ch, ~1536.00 kbps avg
Субтитры: Russian, English, Spanish
Релиз от:
General
Unique ID : 199892865509995535130366317130179883028 (0x9661F72D55C215E3829B94B8BFAB3014)
Complete name : C:Загрузки с инетаAssault.On.Precinct.13.2005.1080p_CMEGRoup_BLUEBIRD.mkv
Format : Matroska
Format version : Version 2
File size : 13.7 GiB
Duration : 1h 48mn
Overall bit rate : 18.0 Mbps
Movie name : Assault.On.Precinct.13.2005.1080p_CMEGRoup_BLUEBIRD
Encoded date : UTC 2012-11-27 07:03:59
Writing application : mkvmerge v5.8.0 ('No Sleep / Pillow') built on Sep 2 2012 15:37:04
Writing library : libebml v1.2.3 + libmatroska v1.3.0

Video
ID : 1
Format : AVC
Format/Info : Advanced Video Codec
Format profile : [email protected]
Format settings, CABAC : Yes
Format settings, ReFrames : 5 frames
Codec ID : V_MPEG4/ISO/AVC
Duration : 1h 48mn
Bit rate : 13.3 Mbps
Width : 1 920 pixels
Height : 800 pixels
Display aspect ratio : 2.40:1
Frame rate mode : Constant
Frame rate : 23.976 fps
Color space : YUV
Chroma subsampling : 4:2:0
Bit depth : 8 bits
Scan type : Progressive
Bits/(Pixel*Frame) : 0.360
Stream size : 10.1 GiB (74%)
Writing library : x264 core 125 r2200kMod 999b753
Encoding settings : cabac=1 / ref=5 / deblock=1:-3:-3 / analyse=0x3:0x113 / me=umh / subme=11 / psy=1 / fade_compensate=0.00 / psy_rd=1.15:0.00 / mixed_ref=1 / me_range=16 / chroma_me=1 / trellis=2 / 8x8dct=1 / cqm=0 / deadzone=21,11 / fast_pskip=0 / chroma_qp_offset=-2 / threads=6 / lookahead_threads=1 / sliced_threads=0 / nr=0 / decimate=0 / interlaced=0 / bluray_compat=0 / constrained_intra=0 / bframes=8 / b_pyramid=2 / b_adapt=2 / b_bias=0 / direct=3 / weightb=1 / open_gop=0 / weightp=2 / keyint=250 / keyint_min=23 / scenecut=40 / intra_refresh=0 / rc=crf / mbtree=0 / crf=18.0000 / qcomp=0.70 / qpmin=0 / qpmax=69 / qpstep=4 / ip_ratio=1.40 / pb_ratio=1.30 / aq=1:0.75
Language : English
Default : No
Forced : No

Audio #1
ID : 2
Format : AC-3
Format/Info : Audio Coding 3
Mode extension : CM (complete main)
Format settings, Endianness : Big
Codec ID : A_AC3
Duration : 1h 48mn
Bit rate mode : Constant
Bit rate : 448 Kbps
Channel(s) : 6 channels
Channel positions : Front: L C R, Side: L R, LFE
Sampling rate : 48.0 KHz
Bit depth : 16 bits
Compression mode : Lossy
Stream size : 349 MiB (2%)
Title : AC3 5.1 448 kbps |Дубляж|
Language : Russian
Default : Yes
Forced : No

Audio #2
ID : 3
Format : AC-3
Format/Info : Audio Coding 3
Mode extension : CM (complete main)
Format settings, Endianness : Big
Codec ID : A_AC3
Duration : 1h 48mn
Bit rate mode : Constant
Bit rate : 448 Kbps
Channel(s) : 6 channels
Channel positions : Front: L C R, Side: L R, LFE
Sampling rate : 48.0 KHz
Bit depth : 16 bits
Compression mode : Lossy
Stream size : 349 MiB (2%)
Title : AC3 5.1 448 kbps |Профессиональный (двухголосый) Tycoon|
Language : Russian
Default : No
Forced : No

Audio #3
ID : 4
Format : DTS
Format/Info : Digital Theater Systems
Mode : 16
Format settings, Endianness : Big
Codec ID : A_DTS
Duration : 1h 48mn
Bit rate mode : Constant
Bit rate : 755 Kbps
Channel(s) : 6 channels
Channel positions : Front: L C R, Side: L R, LFE
Sampling rate : 48.0 KHz
Bit depth : 24 bits
Compression mode : Lossy
Stream size : 587 MiB (4%)
Title : DTS 5.1 768 kbps |Профессиональный (Многоголосный) Superbit|
Language : Russian
Default : No
Forced : No

Audio #4
ID : 5
Format : DTS
Format/Info : Digital Theater Systems
Mode : 16
Format settings, Endianness : Big
Codec ID : A_DTS
Duration : 1h 48mn
Bit rate mode : Constant
Bit rate : 755 Kbps
Channel(s) : 6 channels
Channel positions : Front: L C R, Side: L R, LFE
Sampling rate : 48.0 KHz
Bit depth : 24 bits
Compression mode : Lossy
Stream size : 587 MiB (4%)
Title : DTS 5.1 768 kbps |Профессиональный (Авторский одноголосный) Гаврилов|
Language : Russian
Default : No
Forced : No

Audio #5
ID : 6
Format : AC-3
Format/Info : Audio Coding 3
Mode extension : CM (complete main)
Format settings, Endianness : Big
Codec ID : A_AC3
Duration : 1h 48mn
Bit rate mode : Constant
Bit rate : 448 Kbps
Channel(s) : 6 channels
Channel positions : Front: L C R, Side: L R, LFE
Sampling rate : 48.0 KHz
Bit depth : 16 bits
Compression mode : Lossy
Stream size : 349 MiB (2%)
Language : Ukrainian
Default : No
Forced : No

Audio #6
ID : 7
Format : DTS
Format/Info : Digital Theater Systems
Mode : 16
Format settings, Endianness : Big
Codec ID : A_DTS
Duration : 1h 48mn
Bit rate mode : Constant
Bit rate : 1 509 Kbps
Channel(s) : 6 channels
Channel positions : Front: L C R, Side: L R, LFE
Sampling rate : 48.0 KHz
Bit depth : 24 bits
Compression mode : Lossy
Stream size : 1.15 GiB (8%)
Language : English
Default : No
Forced : No

Text #1
ID : 8
Format : UTF-8
Codec ID : S_TEXT/UTF8
Codec ID/Info : UTF-8 Plain Text
Language : Russian
Default : Yes
Forced : No

Text #2
ID : 9
Format : UTF-8
Codec ID : S_TEXT/UTF8
Codec ID/Info : UTF-8 Plain Text
Language : English
Default : No
Forced : No

Text #3
ID : 10
Format : UTF-8
Codec ID : S_TEXT/UTF8
Codec ID/Info : UTF-8 Plain Text
Language : Spanish
Default : No
Forced : No

Menu #1
00:00:00.000 : en:Chapter 1
00:05:04.721 : en:Chapter 2
00:09:59.098 : en:Chapter 3
00:14:21.611 : en:Chapter 4
00:20:37.653 : en:Chapter 5
00:24:33.389 : en:Chapter 6
00:29:48.286 : en:Chapter 7
00:34:06.378 : en:Chapter 8
00:41:42.208 : en:Chapter 9
00:48:28.531 : en:Chapter 10
00:53:43.303 : en:Chapter 11
00:58:46.606 : en:Chapter 12
01:04:12.932 : en:Chapter 13
01:09:54.649 : en:Chapter 14
01:17:01.158 : en:Chapter 15
01:20:57.519 : en:Chapter 16
01:24:52.713 : en:Chapter 17
01:29:19.938 : en:Chapter 18
01:34:33.835 : en:Chapter 19
01:42:26.599 : en:Chapter 20

Menu #2
00:00:00.054 : en:00:00:00.054




Скачать Нападение на 13-й участок через торрент http://2.firepic.org/2/images/2013-05/07/v02uyhe3iwa6.png Скачать, смотреть онлайн Нападение на 13-й участок бесплантно в хорошем качестве Описание: Считанные часы остаются до закрытия 13-го полицейского участка. Но пока его сотрудники во главе с сержантом Роуником готовятся к ... 10 10 10
Info! Золотая раздача, скачанное не засчитывается.
Торрент: Зарегистрирован [2013-06-04 20:51] · скачан: 51 раз
Статус: √ проверено
Размер: 13.67 GB
Как cкачать? Как скачать Нападение на 13-й участок через торрент | UTorrent

% Раздел Тема Автор DL S | L
Фильмы 2001-2005 [ 2.18 GB ] Нападение на 13-й участок / Assault on Precinct 13 | DUB + Оригинал | HDRip, DUB + Оригинал lev1244v Скачать
1 | 0
Фильмы 2001-2005 [ 1.46 GB ] Нападение на 13-й участок / Assault on Precinct 13 | | HDRip, лицензия mickhemp Скачать
1 | 0
Фильмы 2001-2005 [ 1.46 GB ] Нападение на 13-й участок / Assault on Precinct 13 | | DVDRip, лицензия kuvagen Скачать
1 | 0

28-11-2019 20:33  


Отключить вcю реклaмy на сайте, в т.ч. и в плеере онлайн просмотра!

04-06-2013 21:57 Нападение на 13-й участок Скачать торрент  

Отличный фильм как и актёрский состав, возьму для коллекции. Благодарю.



    Дорогой пользователь! Огромная просьба, поблагодарите релизера, оцените раздачу и оставьте свои комментарий, если Вы скачали Нападение на 13-й участок через торрент бесплатно!!
    Комментировать посты могут только пользователи прошедшие не сложную регистрацию
    Показать сообщения:    


    Нападение на 13-й участок через торрент
    Скачать бесплатно Нападение на 13-й участок
    Нападение на 13-й участок скачать торрент
    Нападение на 13-й участок смотреть онлайн
    Cкачать фильм Нападение на 13-й участок бесплатно
    Нападение на 13-й участок скачать торрент в хорошем качестве
    Нападение на 13-й участок смотреть онлайн бесплатно в хорошем качестве
    Вы не можете начинать темы
    Вы не можете отвечать на сообщения
    Вы не можете редактировать свои сообщения
    Вы не можете удалять свои сообщения
    Вы не можете голосовать в опросах
    Вы не можете прикреплять файлы к сообщениям
    Вы можете скачивать файлы