Мега распродажа FORZA HORIZON 4 ULTIMATE+ВСЕ DLC+ОНЛАЙН всего за 499р. 349 руб. (супер цена). Внимание количество ограничено!!!

Лицензия

30

iTunes

мы

iTunes

1

1 сезон

Чернобыль

1 сезон

Ральф против интернета

MVO

Покемон. Детектив Пикачу

8 сезон

Игра престолов

iTunes

1+1

ИГРА 18+

pack

ВАЖНО

!!Акция!!

Alien_RageХит недели

RePack

Resident Evil 21
pack

RePack

Metro:Exodus

!!Акция!!

Alien_Rage

RePack

fifa19

RePack

Assassins Creed: Odyssey

RePack

NEED FOR SPEED™ PAYBACK

3 сезон

9 сезон

Бесстыжие 9 сезон

Все сериалы

все сериалы на PB.wtf

RePack

FAR CRY 5
Ребята, катастрофически не хватает 2730р. для оплаты серверов за МАЙ (всвязи с блокировками трафик упал в 3 раза), 1-2р., выручайте.
  

Милые кости / The Lovely Bones [x264] (Питер Джексон) [2009 г., фэнтези, триллер, драма, криминал, детектив, HDRip, Дубляж, лицензия] pb.wtf

Милые кости через торрент pb.wtf

Размер: 2.05 GB | Добавлен: 6 лет назад | Торрент скачан:312 раз
Скачать  

05-06-2013 10:28 Милые кости Скачать торрент  

Милые кости / The Lovely Bones [x264]
Год выпуска: 2009
Страна: США
Жанр: фэнтези, триллер, драма, криминал, детектив,
Продолжительность: 135 мин. / 02:15
Перевод: Дублированный + Оригинал

Режиссер: Питер Джексон
Продюссер: Кэролинн Каннингэм, Питер Джексон, Эме Пейронне
Сценарий: Фрэнсис Уолш, Филиппа Бойенс, Питер Джексон

Бюджет: $65 000 000
Премьера в мире: 24 ноября 2009

IMDB 6.60 (82 029)



В ролях: Сирша Ронан, Стэнли Туччи, Марк Уолберг, Рейчел Вайс, Сьюзен Сарандон, Майкл Империоли, Роуз МакИвер, Кристиан Томас Ашдейл, Рис Ричи, Кэролин Дандо, Александра Остроухова, Александр Новиков, Всеволод Кузнецов, Светлана Кузнецова, Елена Соловьева,

Описание: Фильм рассказывает о переживаниях четырнадцатилетней девушки, изнасилованной и убитой маньяком-соседом. Наблюдая за жизнью домочадцев с небес, героиня мечтает о простых подростковых радостях и жаждет поимки душегуба.

Качество: HDRip
Формат: MKV
Видео кодек: H.264
Аудио кодек: AC3
Видео: AVC, 720x304 (2.35:1), 23.976 fps, 1 396 Kbps (0.266 bit/pixel)
Аудио#1: AC-3, 48.0 KHz, 6 ch, 384 Kbps, CBR [Rus]
Аудио#2: AC-3, 48.0 KHz, 6 ch, 384 Kbps, CBR [Eng]
Релиз от: xGhost




General
Unique ID : 209591951044999425611054683770511300126 (0x9DADF103A782D0538B3D6A017E9A161E)
Complete name : D:Milye.Kosti.2009.D.x264.HDRip.Rus.Eng.2100MB.mkv
Format : Matroska
Format version : Version 2
File size : 2.05 GiB
Duration : 2h 15mn
Overall bit rate : 2 166 Kbps
Encoded date : UTC 2013-06-05 10:04:53
Writing application : mkvmerge v6.2.0 ('Promised Land') built on Apr 28 2013 12:22:01
Writing library : libebml v1.3.0 + libmatroska v1.4.0

Video
ID : 1
Format : AVC
Format/Info : Advanced Video Codec
Format profile : High@L4.1
Format settings, CABAC : Yes
Format settings, ReFrames : 12 frames
Codec ID : V_MPEG4/ISO/AVC
Duration : 2h 15mn
Bit rate : 1 396 Kbps
Width : 720 pixels
Height : 304 pixels
Display aspect ratio : 2.35:1
Frame rate mode : Constant
Frame rate : 23.976 fps
Color space : YUV
Chroma subsampling : 4:2:0
Bit depth : 8 bits
Scan type : Progressive
Bits/(Pixel*Frame) : 0.266
Stream size : 1.28 GiB (63%)
Writing library : x264 core 130 r2273 b3065e6
Encoding settings : cabac=1 / ref=12 / deblock=1:-3:-3 / analyse=0x3:0x113 / me=umh / subme=7 / psy=1 / psy_rd=1.00:0.15 / mixed_ref=1 / me_range=32 / chroma_me=1 / trellis=1 / 8x8dct=1 / cqm=0 / deadzone=21,11 / fast_pskip=1 / chroma_qp_offset=-2 / threads=6 / lookahead_threads=1 / sliced_threads=0 / nr=0 / decimate=1 / interlaced=0 / bluray_compat=0 / constrained_intra=0 / bframes=3 / b_pyramid=2 / b_adapt=1 / b_bias=0 / direct=1 / weightb=1 / open_gop=0 / weightp=2 / keyint=240 / keyint_min=22 / scenecut=40 / intra_refresh=0 / rc_lookahead=40 / rc=2pass / mbtree=1 / bitrate=1396 / ratetol=1.0 / qcomp=0.60 / qpmin=10 / qpmax=51 / qpstep=4 / cplxblur=20.0 / qblur=0.5 / vbv_maxrate=50000 / vbv_bufsize=62500 / nal_hrd=none / ip_ratio=1.40 / aq=1:1.00
Default : Yes
Forced : No

Audio #1
ID : 2
Format : AC-3
Format/Info : Audio Coding 3
Mode extension : CM (complete main)
Format settings, Endianness : Big
Codec ID : A_AC3
Duration : 2h 15mn
Bit rate mode : Constant
Bit rate : 384 Kbps
Channel(s) : 6 channels
Channel positions : Front: L C R, Side: L R, LFE
Sampling rate : 48.0 KHz
Bit depth : 16 bits
Compression mode : Lossy
Stream size : 372 MiB (18%)
Default : Yes
Forced : No

Audio #2
ID : 3
Format : AC-3
Format/Info : Audio Coding 3
Mode extension : CM (complete main)
Format settings, Endianness : Big
Codec ID : A_AC3
Duration : 2h 15mn
Bit rate mode : Constant
Bit rate : 384 Kbps
Channel(s) : 6 channels
Channel positions : Front: L C R, Side: L R, LFE
Sampling rate : 48.0 KHz
Bit depth : 16 bits
Compression mode : Lossy
Stream size : 372 MiB (18%)
Default : No
Forced : No


Милые кости скачать торрент


pb.wtf



Скачать Милые кости через торрент http://pic.kartinco.top/images/2011/d9djyyp81i.png Скачать фильм Милые кости через торрент бесплантно в хорошем качестве Описание: Фильм рассказывает о переживаниях четырнадцатилетней девушки, изнасилованной и убитой маньяком-соседом. Наблюдая за жизнью ... 10 10 11
Info! Золотая раздача, скачанное не засчитывается.
Торрент: Зарегистрирован [2013-06-05 10:28] · скачан: 312 раз
Статус: √ проверено
Размер: 2.05 GB
Как cкачать? Как скачать Милые кости через торрент | qTorrent

% Раздел Тема Автор DL S | L
Фильмы 2009 [ 2.91 GB ] Милые кости / The Lovely Bones [2009 BDRip-AVC] DUB potroks Скачать
1 | 0
Фильмы 2009 [ 1.46 GB ] Милые кости / The Lovely Bones [2009 HDRip лицензия] Sудья Скачать
1 | 0
Фильмы (Blu-ray, BD-Remux, HDDVD) [ 42.68 GB ] Милые кости / The Lovely Bones [2009 1080p BD-Remux] ACFIORENTINA Скачать
1 | 0
Фильмы [HD 720p, 1080p] (Хороший звук DUB, MVO) [ 7.72 GB ] Милые кости / The Lovely Bones [2009 BDRip DUB + оригинал] markfiter Скачать
1 | 0
Фильмы [HD 720p, 1080p] (Хороший звук DUB, MVO) [ 15.7 GB ] Милые кости / The Lovely Bones [2009 BDRip 1080p лицензия] DUB Blu-Ray CEE + VO Ю.Сербин Sub rus + original eng EXEBET Скачать
1 | 0
Фильмы 2009 [ 2.16 GB ] Милые кости / The Lovely Bones [2009 BDRip лицензия] SD Скачать
1 | 0


>> Регистрируемся здесь <<






Отзывы и комментарии о схеме читаем и пишем здесь: ---> Отзывы и комментарии о схеме

Новые благодарочки в телеграм довольных пользователей:
скриншот   скриншот   скриншот   скриншот   скриншот
    Дорогой пользователь! Огромная просьба, поблагодарите релизера, оцените раздачу и оставьте свои комментарий, если Вы скачали Милые кости через торрент бесплатно! Внесите свою лепту в развитие PiratBit!
    Комментировать посты могут только пользователи прошедшие не сложную регистрацию
    Показать сообщения:    

    Милые кости через торрент
    Скачать бесплатно Милые кости
    Милые кости скачать торрент
    Милые кости смотреть онлайн
    Cкачать фильм Милые кости бесплатно
    Милые кости скачать торрент в хорошем качестве
    Милые кости смотреть онлайн бесплатно в хорошем качестве


    Вы не можете начинать темы
    Вы не можете отвечать на сообщения
    Вы не можете редактировать свои сообщения
    Вы не можете удалять свои сообщения
    Вы не можете голосовать в опросах
    Вы не можете прикреплять файлы к сообщениям
    Вы можете скачивать файлы