Ссылка на приватное зеркало нашего сайта всего за 1$. Внимание количество ограничено!!!

2 сезон

iTunes

1 сезон

1

iTunes

iTunes

iTunes

1 сезон

RePack

30

ИГРА 18+

pack

ВАЖНО

!!Акция!!

Alien_RageХит недели

RePack

MK11
pack

Забери бонус

RePack

jed

!!Акция!!

Alien_Rage

RePack

fifa19

RePack

Assassins Creed: Odyssey

RePack

NEED FOR SPEED™ PAYBACK

4 сезон

9 сезон

Бесстыжие 9 сезон

Все сериалы

все сериалы на PB.wtf

RePack

FAR CRY 5
  

«Весёлые» каникулы / Get the Gringo (Адриан Грюнберг) [2011 г., боевик, триллер, драма, криминал, BDRip 720p, Дубляж, лицензия] pb.wtf

«Весёлые» каникулы через торрент pb.wtf

Размер: 5.2 GB | Добавлен: 7 лет 4 мес. назад | Торрент скачан:38 раз
Скачать  

05-06-2013 11:04 «Весёлые» каникулы Скачать торрент  

«Весёлые» каникулы / Get the Gringo «Plan your getaway» Год выпуска: 2011
Страна: США
Жанр: боевик, триллер, драма, криминал
Продолжительность: 01:35:59
Перевод: Дубляж, Лицензия
Тип релиза: Лицензия
Субтитры: Есть

Режиссер: Адриан Грюнберг
Продюссер: Мэл Гибсон, Брюс Дэвей, Стэйси Перски
Сценарий: Мэл Гибсон, Стэйси Перски, Адриан Грюнберг

Бюджет: $20 000 000
Премьера в мире: 15 марта 2012



IMDB 7.00 (48 795)



В ролях: Мэл Гибсон, Кевин Эрнандез, Долорес Эредия, Хесус Очоа, Даниэль Хименес Качо, Питер Герети, Роберто Соса, Петер Стормаре, Боб Гантон, Марио Сарагоса

Описание: Лента расскажет о пойманном мексиканскими властями преступнике, заключенном в полную наркотиков и насилия тюрьму...

Качество: BDRip 720p
Формат: MKV
Видео кодек: H.264
Аудио кодек: AC3
Видео: 1280x534 (2.35:1), 23.976 fps, 6 093 Kbps (0.372 bit/pixel)
Аудио #1: AC-3, 48.0 KHz, 6 ch, 640 Kbps, CBR (Russian) дублированный перевод
Аудио #2: AC-3, 48.0 KHz, 6 ch, 384 Kbps, CBR (Ukrainian) дублированный перевод
Аудио #3: AC-3, 48.0 KHz, 6 ch, 640 Kbps, CBR (English) Оригинальная дорожка
Субтитры: Russian, Ukrainian, English




Общее
Уникальный идентификатор : 252231413181410015104212340858303489631 (0xBDC200CED6E28E26B43A36C9E47B265F)
Полное имя : F:«Весёлые» каникулы.2012.BDRip.720p.x264.AC3.mkv
Формат : Matroska
Версия формата : Version 2
Размер файла : 5,20 Гбайт
Продолжительность : 1 ч. 35 м.
Общий поток : 7758 Кбит/сек
Дата кодирования : UTC 2012-08-29 21:01:00
Программа кодирования : mkvmerge v5.6.0 ('Kenya Kane') built on May 27 2012 16:44:04
Библиотека кодирования : libebml v1.2.3 + libmatroska v1.3.0

Видео
Идентификатор : 1
Формат : AVC
Формат/Информация : Advanced Video Codec
Профиль формата : High@L4.1
Параметр CABAC формата : Да
Параметр ReFrames формата : 12 кадров
Идентификатор кодека : V_MPEG4/ISO/AVC
Продолжительность : 1 ч. 35 м.
Битрейт : 6093 Кбит/сек
Ширина : 1280 пикселей
Высота : 534 пикселя
Соотношение сторон : 2,40:1
Режим частоты кадров : Постоянный
Частота кадров : 23,976 кадра/сек
Цветовое пространство : YUV
Субдискретизация насыщенности : 4:2:0
Битовая глубина : 8 бит
Тип развёртки : Прогрессивная
Бит/(Пиксели*Кадры) : 0.372
Размер потока : 3,98 Гбайт (77%)
Заголовок : Encode by HiDt
Библиотека кодирования : x264 core 125 r2200 999b753
Настройки программы : cabac=1 / ref=12 / deblock=1:-3:-3 / analyse=0x3:0x113 / me=tesa / subme=11 / psy=1 / psy_rd=1.06:0.00 / mixed_ref=1 / me_range=32 / chroma_me=1 / trellis=2 / 8x8dct=1 / cqm=0 / deadzone=21,11 / fast_pskip=0 / chroma_qp_offset=-2 / threads=12 / lookahead_threads=2 / sliced_threads=0 / nr=0 / decimate=1 / interlaced=0 / bluray_compat=0 / constrained_intra=0 / bframes=7 / b_pyramid=2 / b_adapt=2 / b_bias=0 / direct=3 / weightb=1 / open_gop=0 / weightp=2 / keyint=240 / keyint_min=23 / scenecut=40 / intra_refresh=0 / rc_lookahead=80 / rc=2pass / mbtree=1 / bitrate=6093 / ratetol=1.0 / qcomp=0.75 / qpmin=0 / qpmax=69 / qpstep=4 / cplxblur=20.0 / qblur=0.5 / ip_ratio=1.40 / aq=1:1.00 / zones=127025,138095,b=0.1
Язык : English
Default : Нет
Forced : Нет

Аудио #1
Идентификатор : 2
Формат : AC-3
Формат/Информация : Audio Coding 3
Расширение режима : CM (complete main)
Параметр Endianness формата : Big
Идентификатор кодека : A_AC3
Продолжительность : 1 ч. 35 м.
Вид битрейта : Постоянный
Битрейт : 640 Кбит/сек
Каналы : 6 каналов
Расположение каналов : Front: L C R, Side: L R, LFE
Частота : 48,0 КГц
Битовая глубина : 16 бит
Метод сжатия : С потерями
Размер потока : 439 Мбайт (8%)
Заголовок : DUB
Язык : Russian
Default : Да
Forced : Нет

Аудио #2
Идентификатор : 3
Формат : AC-3
Формат/Информация : Audio Coding 3
Расширение режима : CM (complete main)
Параметр Endianness формата : Big
Идентификатор кодека : A_AC3
Продолжительность : 1 ч. 35 м.
Вид битрейта : Постоянный
Битрейт : 384 Кбит/сек
Каналы : 6 каналов
Расположение каналов : Front: L C R, Side: L R, LFE
Частота : 48,0 КГц
Битовая глубина : 16 бит
Метод сжатия : С потерями
Размер потока : 264 Мбайт (5%)
Заголовок : DUB
Язык : Ukrainian
Default : Нет
Forced : Нет

Аудио #3
Идентификатор : 4
Формат : AC-3
Формат/Информация : Audio Coding 3
Расширение режима : CM (complete main)
Параметр Endianness формата : Big
Идентификатор кодека : A_AC3
Продолжительность : 1 ч. 35 м.
Вид битрейта : Постоянный
Битрейт : 640 Кбит/сек
Каналы : 6 каналов
Расположение каналов : Front: L C R, Side: L R, LFE
Частота : 48,0 КГц
Битовая глубина : 16 бит
Метод сжатия : С потерями
Размер потока : 439 Мбайт (8%)
Язык : English
Default : Нет
Forced : Нет

Текст #1
Идентификатор : 5
Формат : UTF-8
Идентификатор кодека : S_TEXT/UTF8
Идентификатор кодека/Информация : UTF-8 Plain Text
Язык : Russian
Default : Нет
Forced : Нет

Текст #2
Идентификатор : 6
Формат : UTF-8
Идентификатор кодека : S_TEXT/UTF8
Идентификатор кодека/Информация : UTF-8 Plain Text
Язык : Ukrainian
Default : Нет
Forced : Нет

Текст #3
Идентификатор : 7
Формат : UTF-8
Идентификатор кодека : S_TEXT/UTF8
Идентификатор кодека/Информация : UTF-8 Plain Text
Язык : English
Default : Нет
Forced : Нет


«Весёлые» каникулы скачать торрент




pb.wtf



Скачать «Весёлые» каникулы через торрент http://pic.kartinco.top/images/2/ktlxvn2668.gif Скачать фильм «Весёлые» каникулы через торрент бесплантно в хорошем качестве Описание: Лента расскажет о пойманном мексиканскими властями преступнике, заключенном в полную наркотиков и насилия ... 10 10 7
Info! Золотая раздача, скачанное не засчитывается.
Торрент: Зарегистрирован [2013-06-05 11:04] · скачан: 38 раз
Статус: √ проверено
Размер: 5.2 GB
Как cкачать? Как скачать «Весёлые» каникулы через торрент | qTorrent

% Раздел Тема Автор DL S | L
Фильмы 2012 [ 2.18 GB ] «Весёлые» каникулы / Get the Gringo [2012 BDRip-AVC] DUB [] potroks Скачать
1 | 0
Фильмы [HD 720p, 1080p] (Хороший звук DUB, MVO) [ 11.51 GB ] «Весёлые» каникулы / Get the Gringo [2012 BDRip 1080p от _denis_100 / NNNB] DUB 4xAVO + Original + Sub _denis_100 Скачать
1 | 0
Фильмы [HD 720p, 1080p] (Хороший звук DUB, MVO) [ 5.75 GB ] «Весёлые» каникулы / Get the Gringo [2012 BDRip 720p от _denis_100 / NNNB] DUB 4xAVO + Original + Sub _denis_100 Скачать
1 | 0
Фильмы 2012 [ 1.45 GB ] «Весёлые» каникулы / Get the Gringo [2012 BDRip от HQCLUB / ] Ворон Скачать
1 | 0
Фильмы 2012 [ 1.45 GB ] «Весёлые» каникулы / Get the Gringo [2012 BDRip + Оригинал] ОкСиД Скачать
1 | 0
Фильмы 2012 [ 2.05 GB ] «Весёлые» каникулы / Get the Gringo [2012 BDRip DUB + DUB + Оригинал] bogyn Скачать
1 | 0
Фильмы 2012 [ 1.47 GB ] «Весёлые» каникулы / Get the Gringo [2012 DVDRip-AVC DUB ] -=Cherry=- Скачать
1 | 0

28-11-2019 20:33  

Отключить всю рекламу на сайте

    Дорогой пользователь! Огромная просьба, поблагодарите релизера, оцените раздачу и оставьте свои комментарий, если Вы скачали «Весёлые» каникулы через торрент бесплатно! Внесите свою лепту в развитие PiratBit!
    Комментировать посты могут только пользователи прошедшие не сложную регистрацию
    Показать сообщения:    

    «Весёлые» каникулы через торрент
    Скачать бесплатно «Весёлые» каникулы
    «Весёлые» каникулы скачать торрент
    «Весёлые» каникулы смотреть онлайн
    Cкачать фильм «Весёлые» каникулы бесплатно
    «Весёлые» каникулы скачать торрент в хорошем качестве
    «Весёлые» каникулы смотреть онлайн бесплатно в хорошем качестве


    Вы не можете начинать темы
    Вы не можете отвечать на сообщения
    Вы не можете редактировать свои сообщения
    Вы не можете удалять свои сообщения
    Вы не можете голосовать в опросах
    Вы не можете прикреплять файлы к сообщениям
    Вы можете скачивать файлы