Ссылка на приватное зеркало нашего сайта всего за 1$. Внимание количество ограничено!!!

2 сезон

iTunes

1 сезон

1

iTunes

iTunes

iTunes

1 сезон

RePack

30

ИГРА 18+

pack

ВАЖНО

!!Акция!!

Alien_RageХит недели

RePack

MK11
pack

Забери бонус

RePack

jed

!!Акция!!

Alien_Rage

RePack

fifa19

RePack

Assassins Creed: Odyssey

RePack

NEED FOR SPEED™ PAYBACK

4 сезон

9 сезон

Бесстыжие 9 сезон

Все сериалы

все сериалы на PB.wtf

RePack

FAR CRY 5
  

Орел Девятого легиона / The Eagle (Кевин МакДональд) [2011 г., драма, история, BDRip 720p, Дубляж, Лицензия] [Расширенная версия] pb.wtf

Орел Девятого легиона через торрент pb.wtf

Размер: 7.1 GB | Добавлен: 2 года 8 мес. назад | Торрент скачан:75 раз
Скачать  

05-06-2013 11:34 Орел Девятого легиона Скачать торрент  

Орел Девятого легиона / The Eagle
Расширенная версия

««Честь солдата. Участь раба. Судьба империи»»

Год выпуска: 2011
Страна: США
Жанр: драма, история

Продолжительность: 01:54:09
Перевод: Дубляж - [Лицензия]
Субтитры: русские, английские
Режиссер: Кевин Макдональд
В ролях:

Ченнинг Татум (Marcus), Джейми Белл (Esca), Дональд Сазерленд (Uncle Aquila), Марк Стронг (Guern), Дэкин Мэтьюз (Claudius), Иштван Гёз (Cohort Centurion), Бенце Герё (Young Marcus), Дэнис О’Хэр (Lutorius), Пол Риттер (Galba), Жольт Ласло (Paulus), Джулиан Льюис Джонс (Cassius), Аладар Лаклот (Flavius Aquila)
Описание:
II век нашей эры. Молодой центурион Маркус Акила прибывает из Рима на Британские острова и отправляется в горы Шотландии на поиски пропавшего 20 лет назад легендарного Девятого легиона, которым командовал его отец... Дикие племена и непредсказуемые опасности стоят на пути героя, но он во чтобы то ни стало должен найти след римских воинов и спасти главный символ легиона - Орла Девяти.
Рейтинг:

MPAA: PG-13 - Детям до 13 лет просмотр не желателен
Качество: BDRip 720p
Формат: MKV
Видео: AVC, 1280x544 (2.35:1), 7556 kbps, 23,976 fps, 0,453 bpp
Аудио №1: русский / AC3 / 5.1 / 48 kHz / 448 kbps / |Дубляж|
Аудио №2: украинский / AC3 / 5.1 / 48 kHz / 448 kbps / |Дубляж|
Аудио №3: английский / AC3 / 5.1 / 48 kHz / 448 kbps /
Навигация по главам: есть
General
Unique ID : 238580694522283391525139508545878865212 (0xB37CF86A62BD267382EDDD6161B1B53C)
Complete name : E:\The.Eagle.Unrated.2011.BDRip.(720p).mkv
Format : Matroska
Format version : Version 4 / Version 2
File size : 7.10 GiB
Duration : 1 h 54 min
Overall bit rate : 8 900 kb/s
Movie name : The Eagle (2011)
Encoded date : UTC 2017-03-08 14:31:04
Writing application : mkvmerge v6.9.1 ('Blue Panther') 64bit built on Apr 18 2014 18:23:38
Writing library : libebml v1.3.0 + libmatroska v1.4.1

Video
ID : 1
Format : AVC
Format/Info : Advanced Video Codec
Format profile : High@L4.1
Format settings, CABAC : Yes
Format settings, ReFrames : 12 frames
Codec ID : V_MPEG4/ISO/AVC
Duration : 1 h 54 min
Bit rate : 7 556 kb/s
Width : 1 280 pixels
Height : 544 pixels
Display aspect ratio : 2.35:1
Frame rate mode : Constant
Frame rate : 23.976 (24000/1001) FPS
Color space : YUV
Chroma subsampling : 4:2:0
Bit depth : 8 bits
Scan type : Progressive
Bits/(Pixel*Frame) : 0.453
Stream size : 5.88 GiB (83%)
Title : The Eagle (2011)
Writing library : x264 core 148 r2638 7599210
Encoding settings : cabac=1 / ref=12 / deblock=1:-3:-3 / analyse=0x3:0x133 / me=umh / subme=11 / psy=1 / psy_rd=1.00:0.00 / mixed_ref=1 / me_range=32 / chroma_me=1 / trellis=2 / 8x8dct=1 / cqm=0 / deadzone=21,11 / fast_pskip=1 / chroma_qp_offset=-2 / threads=6 / lookahead_threads=1 / sliced_threads=0 / nr=0 / decimate=1 / interlaced=0 / bluray_compat=0 / constrained_intra=0 / bframes=5 / b_pyramid=2 / b_adapt=2 / b_bias=0 / direct=3 / weightb=1 / open_gop=0 / weightp=2 / keyint=240 / keyint_min=23 / scenecut=40 / intra_refresh=0 / rc_lookahead=60 / rc=2pass / mbtree=1 / bitrate=7556 / ratetol=1.0 / qcomp=0.60 / qpmin=0 / qpmax=69 / qpstep=4 / cplxblur=20.0 / qblur=0.5 / vbv_maxrate=50000 / vbv_bufsize=62500 / nal_hrd=none / filler=0 / ip_ratio=1.40 / aq=1:1.00
Language : English
Default : Yes
Forced : No

Audio #1
ID : 2
Format : AC-3
Format/Info : Audio Coding 3
Mode extension : CM (complete main)
Format settings, Endianness : Big
Codec ID : A_AC3
Duration : 1 h 54 min
Bit rate mode : Constant
Bit rate : 448 kb/s
Channel(s) : 6 channels
Channel positions : Front: L C R, Side: L R, LFE
Sampling rate : 48.0 kHz
Frame rate : 31.250 FPS (1536 spf)
Compression mode : Lossy
Stream size : 366 MiB (5%)
Title : AC3, 6 ch, 448 Kbps, Dub
Language : Russian
Default : Yes
Forced : No

Audio #2
ID : 3
Format : AC-3
Format/Info : Audio Coding 3
Mode extension : CM (complete main)
Format settings, Endianness : Big
Codec ID : A_AC3
Duration : 1 h 54 min
Bit rate mode : Constant
Bit rate : 448 kb/s
Channel(s) : 6 channels
Channel positions : Front: L C R, Side: L R, LFE
Sampling rate : 48.0 kHz
Frame rate : 31.250 FPS (1536 spf)
Compression mode : Lossy
Stream size : 366 MiB (5%)
Title : AC3, 6 ch, 448 Kbps, Українська
Language : Ukrainian
Default : No
Forced : No

Audio #3
ID : 4
Format : AC-3
Format/Info : Audio Coding 3
Mode extension : CM (complete main)
Format settings, Endianness : Big
Codec ID : A_AC3
Duration : 1 h 54 min
Bit rate mode : Constant
Bit rate : 448 kb/s
Channel(s) : 6 channels
Channel positions : Front: L C R, Side: L R, LFE
Sampling rate : 48.0 kHz
Frame rate : 31.250 FPS (1536 spf)
Compression mode : Lossy
Stream size : 366 MiB (5%)
Title : AC3, 6 ch, 448 Kbps, Original
Language : English
Default : No
Forced : No

Text #1
ID : 5
Format : UTF-8
Codec ID : S_TEXT/UTF8
Codec ID/Info : UTF-8 Plain Text
Language : Russian
Default : No
Forced : No

Text #2
ID : 6
Format : UTF-8
Codec ID : S_TEXT/UTF8
Codec ID/Info : UTF-8 Plain Text
Language : English
Default : No
Forced : No

Menu
00:00:00.000 : en:Chapter 01
00:08:34.096 : en:Chapter 02
00:14:29.493 : en:Chapter 03
00:20:37.277 : en:Chapter 04
00:28:12.273 : en:Chapter 05
00:34:58.137 : en:Chapter 06
00:41:25.566 : en:Chapter 07
00:48:37.706 : en:Chapter 08
00:55:30.368 : en:Chapter 09
01:02:57.857 : en:Chapter 10
01:09:25.870 : en:Chapter 11
01:15:48.418 : en:Chapter 12
01:22:58.181 : en:Chapter 13
01:31:12.717 : en:Chapter 14
01:39:44.603 : en:Chapter 15
01:47:46.293 : en:Chapter 16
pb.wtf



Скачать Орел Девятого легиона через торрент http://i1.imageban.ru/out/2018/02/24/18d8585a49917e92b57b6c4199ae9625.jpg Скачать фильм Орел Девятого легиона через торрент бесплантно в хорошем качестве Описание: II век нашей эры. Молодой центурион Маркус Акила прибывает из Рима на Британские острова и отправляется в горы Шотландии на ... 10 10 19
Торрент: Зарегистрирован [2018-02-24 16:38] · скачан: 75 раз
Статус: √ проверено
Размер: 7.1 GB
Как cкачать? Как скачать Орел Девятого легиона через торрент | qTorrent

% Раздел Тема Автор DL S | L
Фильмы 2011 [ 745 MB ] Орел Девятого легиона / Eagle The [2011 история HDRip] ACFIORENTINA Скачать
1 | 0
Фильмы 2011 [ 1.37 GB ] Орел Девятого легиона / The Eagle [2011 история DVDRip лицензия] SD Скачать
1 | 0
Фильмы [HD 720p, 1080p] (Хороший звук DUB, MVO) [ 14.34 GB ] Орел Девятого легиона / The Eagle [2011 история BDRip 1080p ] Gramila Скачать
1 | 0
Фильмы (Blu-ray, BD-Remux, HDDVD) [ 32.85 GB ] Орел Девятого легиона / The Eagle [2011 история Blu-Ray] shuller Скачать
1 | 0
Фильмы 2011 [ 2.24 GB ] Орел Девятого легиона / Eagle The [2011 история BDRip лицензия] ACFIORENTINA Скачать
1 | 0
Фильмы [HD 720p, 1080p] (Хороший звук DUB, MVO) [ 10.7 GB ] Орел Девятого легиона / The Eagle [2011 история BDRip 1080p] PoBeP37 Скачать
1 | 0
Фильмы 2011 [ 1.37 GB ] Орел Девятого легиона / Eagle The [2011 история HDRip лицензия] Lil Badun Скачать
1 | 0

28-11-2019 20:33  

Отключить всю рекламу на сайте

05-06-2013 13:00 Орел Девятого легиона Скачать торрент  

Спасибо большое!!!pb.wtf



    Дорогой пользователь! Огромная просьба, поблагодарите релизера, оцените раздачу и оставьте свои комментарий, если Вы скачали Орел Девятого легиона через торрент бесплатно! Внесите свою лепту в развитие PiratBit!
    Комментировать посты могут только пользователи прошедшие не сложную регистрацию
    Показать сообщения:    

    Орел Девятого легиона через торрент
    Скачать бесплатно Орел Девятого легиона
    Орел Девятого легиона скачать торрент
    Орел Девятого легиона смотреть онлайн
    Cкачать фильм Орел Девятого легиона бесплатно
    Орел Девятого легиона скачать торрент в хорошем качестве
    Орел Девятого легиона смотреть онлайн бесплатно в хорошем качестве


    Вы не можете начинать темы
    Вы не можете отвечать на сообщения
    Вы не можете редактировать свои сообщения
    Вы не можете удалять свои сообщения
    Вы не можете голосовать в опросах
    Вы не можете прикреплять файлы к сообщениям
    Вы можете скачивать файлы