1 сезон

1 сезон

iTunes

1

КиноПоиск HD

Кинопоиск HD

iTunes

13

1 сезон

RePack

30

Новинка

ВАЖНО

ИГРА 18+

pack

RePack

MK11
pack

Легкие деньги

RePack

jed

RePack

fifa19

RePack

RDR2

RePack

NEED FOR SPEED™ PAYBACK

4 сезон

9 сезон

Бесстыжие 9 сезон

Все сериалы

все сериалы на PB.wtf

RePack

FAR CRY 5
  
Magnet ссылка

Черный ястреб (расширенная версия) / Black hawk down (extended cut) (Ридли Скотт) [2001 г., драма, военный, история, DVDRip, MVO (закадровый)] pb.wtf

Черный ястреб через торрент pb.wtf

Размер: 1.47 GB | Добавлен: 7 лет 10 мес. назад | Торрент скачан:106 раз
Скачать  

05-06-2013 15:41 Черный ястреб Скачать торрент  

Черный ястреб (расширенная версия) / Black hawk down (extended cut)

Год выпуска: 2001
Страна: США
Жанр: драма, военный, история
Продолжительность: 02:31:52
Перевод: Профессиональный многоголосый (закадровый)

Режиссер: Ридли Скотт
Продюссер: Джерри Брукхаймер, Ридли Скотт, Гарри Хемфрис
Сценарий: Кен Нолан, Марк Боуден

Бюджет: $92 000 000
Премьера в мире: 18 декабря 2001



В ролях: Джош Хартнетт /Josh Hartnett/, Эрик Бана /Eric Bana/, Эван МакГрегор /Ewan McGregor/, Том Сайзмор /Tom Sizemore/, Сэм Шепард /Sam Shepard/, Эвен Бремнер /Ewen Bremner

Описание: Сомали, 1993 год. Страна вымирает от голода, число жертв превысило триста тысяч человек. Миротворческие силы ООН пытаются восстановить порядок и организовать поставки продовольствия. В помощь им Вашингтон выслал полтысячи человек из элитных подразделений американской армии, знаменитые отряды «Дельта» и армейских рейнджеров.
В городе Магадишо хозяйничает и творит беспредел полевой командир Айдид, убивая мирных граждан и отбирая гуманитарную помощь. В определенный момент орлы из Вашингтона решают провести операцию по захвату Айдида в его резиденции.
Молодой офицер, только что назначенный взводным; матерый сержант, ведущий колонну машин; казарменный писарь, не нюхавший пороху; экипажи сбитых вертолетов, вынужденных ждать подкрепления и эвакуации; пара солдат, которых забыли взять с собой при смене позиции; генерал, сидящий в штабе и наблюдающий со спутника, как погибают его солдаты…

Качество: DVDRip
Формат: AVI
Видео кодек: XviD
Аудио кодек: AC3
Видео: 720x304 (2.37:1), 23.976 fps, XviD build 50 ~991 kbps avg, 0.19 bit/pixel
Аудио: 48 kHz, AC3 Dolby Digital, 3/2 (L,C,R,l,r) + LFE ch, ~384.00 kbps avg


Общее
Полное имя : J:Падение черного ястреба (режисёрская версия)
Формат : AVI
Формат/Информация : Audio Video Interleave
Размер файла : 1,47 Гбайт
Продолжительность : 2 ч. 31 м.
Общий поток : 1385 Кбит/сек
Программа кодирования : VirtualDubMod 1.5.10.2 (build 2540/release)
Библиотека кодирования : VirtualDubMod build 2540/release

Видео
Идентификатор : 0
Формат : MPEG-4 Visual
Профиль формата : Advanced Simple@L5
Параметр BVOP формата : 1
Параметр QPel формата : Нет
Параметр GMC формата : Без точки перехода
Параметр матрицы формата : Default (MPEG)
Идентификатор кодека : XVID
Идентификатор кодека/Подсказка : XviD
Продолжительность : 2 ч. 31 м.
Битрейт : 992 Кбит/сек
Ширина : 720 пикселей
Высота : 304 пикселя
Соотношение сторон : 2,35:1
Частота кадров : 23,976 кадра/сек
Цветовое пространство : YUV
Субдискретизация насыщенности : 4:2:0
Битовая глубина : 8 бит
Тип развёртки : Прогрессивная
Метод сжатия : С потерями
Бит/(Пиксели*Кадры) : 0.189
Размер потока : 1,05 Гбайт (72%)
Библиотека кодирования : XviD 1.2.1 (UTC 2008-12-04)

Аудио
Идентификатор : 1
Формат : AC-3
Формат/Информация : Audio Coding 3
Расширение режима : CM (complete main)
Параметр Endianness формата : Big
Идентификатор кодека : 2000
Продолжительность : 2 ч. 31 м.
Вид битрейта : Постоянный
Битрейт : 384 Кбит/сек
Каналы : 6 каналов
Расположение каналов : Front: L C R, Side: L R, LFE
Частота : 48,0 КГц
Битовая глубина : 16 бит
Метод сжатия : С потерями
Размер потока : 417 Мбайт (28%)
Выравнивание : Разделение по промежуткам
Продолжительность промежутка : 42 мс. (1,00 видеокадр)
Время предзагрузки промежутка : 500 мс.
pb.wtf



Скачать Черный ястреб через торрент http://i2.imageban.ru/out/2013/06/05/d97f8ee93f2ab0a8cfbde986c7bdf03b.jpg Скачать фильм Черный ястреб через торрент бесплантно в хорошем качестве Описание: Сомали, 1993 год. Страна вымирает от голода, число жертв превысило триста тысяч человек. Миротворческие силы ООН пытаются ... 9.5 10 13
Info! Золотая раздача, скачанное не засчитывается.
Торрент: Зарегистрирован [2013-06-05 15:41] · скачан: 106 раз
Статус: √ проверено
Размер: 1.47 GB
Как cкачать? Как скачать Черный ястреб через торрент | UTorrent

% Раздел Тема Автор DL S | L
Фильмы (HD 720p, 1080p) (48-60 fps) [ 8.64 GB ] Чёрный ястреб / Падение Чёрного ястреба / Black Hawk Down [2001 военный [Extended Cut] / JPN Transfer BDRip-HEVC 1080p 60fps MVO] Tiberiumsun69 Скачать
15 | 3
Ultra HD (UHD: 2K, 4K, 8K) — видео сверхвысокой чёткости [ 75.58 GB ] Черный ястреб / Падение Чёрного ястреба / Black Hawk Down [2001 военный история реальные события UHD BDRemux 2160p] MVO + DVO + 3xAVO [Расширенная версия] sheker187 Скачать
1 | 0
Фильмы [HD 720p, 1080p] (Хороший звук DUB, MVO) [ 10.94 GB ] Чёрный ястреб / Black Hawk Down [Extended Cut] [2001 военный история HDRip-HEVC 10bit ] ADVOKAT69 Скачать
1 | 0
Ultra HD (UHD: 2K, 4K, 8K) — видео сверхвысокой чёткости [ 84.38 GB ] Черный ястреб / Падение Чёрного ястреба / Black Hawk Down [2001 военный история реальные события UHD Blu-ray EUR 2160p] [Театральная и расширенная версия] DUB [] sheker187 Скачать
1 | 0
Фильмы (HD 720p, 1080p) (48-60 fps) [ 15.84 GB ] Черный ястреб / Падение чёрного ястреба / Black Hawk Down [2001 военный BDRip 1080p / 60 FPS ] Tiberiumsun69 Скачать
1 | 0
Фильмы [HD 720p, 1080p] (Хороший звук DUB, MVO) [ 7.96 GB ] Черный ястреб / Падение Чёрного ястреба / Black Hawk Down [2001 военный BDRip 720p +MVOAVO _denis_100 Скачать
1 | 0
Фильмы [HD 720p, 1080p] (Хороший звук DUB, MVO) [ 19.02 GB ] Черный ястреб / Black Hawk Down [2001 военный история BDRip 1080p ] Артронах Скачать
1 | 0

28-11-2019 20:33  

Отключить всю рекламу на сайте

    Дорогой пользователь! Огромная просьба, поблагодарите релизера, оцените раздачу и оставьте свои комментарий, если Вы скачали Черный ястреб через торрент бесплатно! Внесите свою лепту в развитие PiratBit!
    Комментировать посты могут только пользователи прошедшие не сложную регистрацию
    Показать сообщения:    

    Черный ястреб через торрент
    Скачать бесплатно Черный ястреб
    Черный ястреб скачать торрент
    Черный ястреб смотреть онлайн
    Cкачать фильм Черный ястреб бесплатно
    Черный ястреб скачать торрент в хорошем качестве
    Черный ястреб смотреть онлайн бесплатно в хорошем качестве


    Вы не можете начинать темы
    Вы не можете отвечать на сообщения
    Вы не можете редактировать свои сообщения
    Вы не можете удалять свои сообщения
    Вы не можете голосовать в опросах
    Вы не можете прикреплять файлы к сообщениям
    Вы можете скачивать файлы