MEGA SALE -50% FORZA HORIZON 4 ULTIMATE+ВСЕ DLC+ОНЛАЙН всего за 599р. 299 руб. (супер цена). Внимание количество ограничено!!!

iTunes

1+1

iTunes

мы

iTunes

1

iTunes

Чернобыль

iTunes

Ральф против интернета

Лицензия

ПШазам

Лицензия

Игра престолов

Лицензия

30
pack

ВАЖНО

!!Акция!!

Alien_RageХит недели

RePack

Resident Evil 21

ИГРА 18+

pack

RePack

Metro:Exodus

!!Акция!!

Alien_Rage

RePack

fifa19

RePack

Assassins Creed: Odyssey

RePack

NEED FOR SPEED™ PAYBACK

3 сезон

9 сезон

Бесстыжие 9 сезон

Все сериалы

все сериалы на PB.wtf

RePack

FAR CRY 5
Ребята, катастрофически не хватает 7730р. для оплаты серверов за АВГУСТ (всвязи с блокировками трафик упал в 3 раза), 1-2р., выручайте.
  

Братья Дедд / Dedd Brothers (Дустин Щуеттер) [2009 г., Комедия, криминал, SATRip, Профессиональный двухголосый] pb.wtf

Братья Дедд через торрент pb.wtf

Размер: 1.37 GB | Добавлен: 6 лет 3 мес. назад | Торрент скачан:73 раза
Скачать  

06-06-2013 12:43 Братья Дедд Скачать торрент  

Братья Дедд / Dedd BrothersГод выпуска: 2009
Страна: США, Aria Relic Cinema
Жанр: Комедия, криминал,
Продолжительность: 01:24:43
Перевод: Профессиональный двухголосый

Режиссер: Дустин Щуеттер



В ролях: Карлуччи Уайент, Ивет Корвеа, Тим Лакатена, Сэм Сарпонг, Майкл Корначчиа, Гил Дарнелл, Джина Компаретто, Джейк Гэллагер, Джейсон Гейтс, Фиа Перера,

Описание: Через год после смерти своего отца, четверо братьев решают, что пора бросить свою бесперспективную работу и начать семейный бизнес. .. похоронное бюро. На раскрутку бизнеса парни берут деньги в долг у знакомого наркомана. Но тут четверка узнает, что деньги на самом деле украдены. .. у мафии. Из звонка от босса мафии ребята не только узнают, что их заемщик убит, но что они должны отдать двойную сумму через две недели. Братья вынуждены решиться на грабежи и все остальное, что они могут сделать, чтобы получить деньги, но это оказывается не так просто. Срок приближается, и семья вынуждена обратиться к отчаянным мерам…

Качество: SATRip
Видео кодек: XviD
Аудио кодек: AC3
Видео: XviD, 2133 Кбит/с, 720x400, 25 fps
Аудио#1: AC3, 2 ch, 192 Кбит/с, 48kHz

Общее
Полное имя : E:Download-UT++Bratya.Dedd.2009.XviD.SATRip.ClubTorrent.avi
Формат : AVI
Формат/Информация : Audio Video Interleave
Размер файла : 1,37 Гбайт
Продолжительность : 1 ч. 24 м.
Общий поток : 2335 Кбит/сек
Программа кодирования : VirtualDubMod 1.5.10.3 | www.virtualdub-fr.org || (build 2550/release)
Библиотека кодирования : VirtualDubMod build 2550/release

Видео
Идентификатор : 0
Формат : MPEG-4 Visual
Профиль формата : Advanced Simple@L5
Параметр BVOP формата : 1
Параметр QPel формата : Нет
Параметр GMC формата : Без точки перехода
Параметр матрицы формата : Default (MPEG)
Идентификатор кодека : XVID
Идентификатор кодека/Подсказка : XviD
Продолжительность : 1 ч. 24 м.
Битрейт : 2133 Кбит/сек
Ширина : 720 пикселей
Высота : 400 пикселей
Соотношение сторон : 16:9
Частота кадров : 25,000 кадров/сек
Цветовое пространство : YUV
Субдискретизация насыщенности : 4:2:0
Битовая глубина : 8 бит
Тип развёртки : Прогрессивная
Метод сжатия : С потерями
Бит/(Пиксели*Кадры) : 0.296
Размер потока : 1,25 Гбайт (91%)
Библиотека кодирования : XviD 1.2.1 (UTC 2008-12-04)

Аудио
Идентификатор : 1
Формат : AC-3
Формат/Информация : Audio Coding 3
Расширение режима : CM (complete main)
Параметр Endianness формата : Big
Идентификатор кодека : 2000
Продолжительность : 1 ч. 24 м.
Вид битрейта : Постоянный
Битрейт : 192 Кбит/сек
Каналы : 2 канала
Расположение каналов : Front: L R
Частота : 48,0 КГц
Битовая глубина : 16 бит
Метод сжатия : С потерями
Размер потока : 116 Мбайт (8%)
Выравнивание : Разделение по промежуткам
Продолжительность промежутка : 40 мс. (1,00 видеокадр)
Время предзагрузки промежутка : 500 мс.

pb.wtf



Скачать Братья Дедд через торрент http://uploadpic.ru/img/2013-06/06/n0obmfqvjtgx50pf0cbn2nciz.jpg Скачать фильм Братья Дедд через торрент бесплантно в хорошем качестве Описание: Через год после смерти своего отца, четверо братьев решают, что пора бросить свою бесперспективную работу и начать семейный ... 8.4 10 7
Info! Золотая раздача, скачанное не засчитывается.
Торрент: Зарегистрирован [2013-06-06 12:43] · скачан: 73 раз
Статус: √ проверено
Размер: 1.37 GB
Как cкачать? Как скачать Братья Дедд через торрент | qTorrent



Последний раз редактировалось: k1z (2013-06-06 13:04), всего редактировалось 2 раз(а)


>> Регистрируемся здесь <<






Отзывы и комментарии о схеме читаем и пишем здесь: ---> Отзывы и комментарии о схеме

Новые благодарочки в телеграм довольных пользователей:
скриншот   скриншот   скриншот   скриншот   скриншот

06-06-2013 12:58 Братья Дедд Скачать торрент  

Добавь частоту.pb.wtf



06-06-2013 13:14 Братья Дедд Скачать торрент  

Ребята отпишитесь кто смотрел:как фильм? На "Кинопоиске" отзывов не нашел. pb.wtf



06-06-2013 15:32 Братья Дедд Скачать торрент  

Братья судьи Дредда )pb.wtf



06-06-2013 15:40 Братья Дедд Скачать торрент  

это цыгане американские, по ходуpb.wtf



    Дорогой пользователь! Огромная просьба, поблагодарите релизера, оцените раздачу и оставьте свои комментарий, если Вы скачали Братья Дедд через торрент бесплатно! Внесите свою лепту в развитие PiratBit!
    Комментировать посты могут только пользователи прошедшие не сложную регистрацию
    Показать сообщения:    

    Братья Дедд через торрент
    Скачать бесплатно Братья Дедд
    Братья Дедд скачать торрент
    Братья Дедд смотреть онлайн
    Cкачать фильм Братья Дедд бесплатно
    Братья Дедд скачать торрент в хорошем качестве
    Братья Дедд смотреть онлайн бесплатно в хорошем качестве


    Вы не можете начинать темы
    Вы не можете отвечать на сообщения
    Вы не можете редактировать свои сообщения
    Вы не можете удалять свои сообщения
    Вы не можете голосовать в опросах
    Вы не можете прикреплять файлы к сообщениям
    Вы можете скачивать файлы