Доктор Стрэндж

Лицензия

Добыча

Дубляж

Дом дракона

1 сезон

Тор

Дубляж

В эфире

Дубляж

Там, где раки поют

MVO

Властелин колец

1 сезон

GLOBAL

pack

Рекомендуем

30

Пиратка

ВАЖНО

ВАЖНО

Ghostwire

Пиратка

jed

RePack

nioh2

RePack

RDR2

RePack

NEED FOR SPEED™ PAYBACK

RePack

скачать торрент

Кинопоиск HD

Острые козырьки 6 сезон

6 сезон

FAR CRY 6

RePack

скачать торрент

Лицензия

скачать торрент

MVO

1

1 сезон

скачать торрент

1 сезон

скачать торрент

Лицензия

  

Первобытное зло / Primeval (Майкл Кэтлман) [2007 г., ужасы, боевик, триллер, приключения, BDRip 720p, Дубляж, лицензия]

Первобытное зло через торрент pb.wtf

Размер: 4.36 GB | Добавлен: 9 лет 5 мес. назад | Торрент скачан:130 раз
Смотреть онлайн | Скачать   

07-06-2013 12:10 Первобытное зло Скачать торрент  

Первобытное зло / Primeval Год выпуска: 2007
Страна: США
Жанр: ужасы, боевик, триллер, приключения
Продолжительность: 01:34:12
Перевод: Дубляж, Лицензия
Тип релиза: Лицензия
Субтитры: Есть

Режиссер: Майкл Кэтлман
Продюссер: Митч Энджел, Влокки Кунэ, Гэвин Полон
Сценарий: Джон Д. Бранкато, Майкл Феррис

Бюджет: $10 597 734
Премьера в мире: 12 января 2007



IMDB 4.40 (8 762)



В ролях: Доминик Пёрселл, Брук Лэнгтон, Орландо Джонс, Юрген Прохнов, Гидеон Эмери, Гэбриел Малема, Линда Мпондо, Лелохоноло Макоко, Думисани Мбебе, Эдди Бекомбо, Евгений Ганелин, Мария Цветкова-Овсянникова, Евгений Леонов-Гладышев, Михаил Хрусталев, Юрий Лазарев,

Описание: Этот серийный убийца скрывается в африканских джунглях и считается одним из самых опасных. На его счету больше жертв, чем у Джека-Потрошителя, Унибомбера и Чикатило вместе взятых. Его много раз пытались поймать, но каждый раз преследователи в лучшем случае уходили ни с чем, а в худшем — сами становились новыми жертвами.Команда телевизионщиков из США отправляется в африканские джунгли для того, чтобы снять сюжет о поисках легендарного киллера, но они не предполагают, с каким первобытным злом им придется столкнуться...

Качество: BDRip 720p
Формат: MKV
Видео кодек: H.264
Аудио кодек: AC3/DTS
Видео: 1280x544 (2.35:1), 23.976 fps, 5 107 Kbps (0.306 bit/pixel)
Аудио #1: AC-3, 48.0 KHz, 6 ch, 384 Kbps, CBR (Russian)
Аудио #2: AC-3, 48.0 KHz, 6 ch, 384 Kbps, CBR (Ukrainian)
Аудио #3: DTS, 48.0 KHz, 6 ch, 755 Kbps, CBR (English)
Субтитры: Russian, English






Общее
Уникальный идентификатор : 204875707275236546535968722843762803713 (0x9A21A03E620CF47D87E4B01D4385C401)
Полное имя : F:Первобытное зло.720p.mkv
Формат : Matroska
Версия формата : Version 2
Размер файла : 4,36 Гбайт
Продолжительность : 1 ч. 34 м.
Общий поток : 6632 Кбит/сек
Дата кодирования : UTC 2010-05-25 10:31:03
Программа кодирования : mkvmerge v2.9.8 ('C'est le bon') built on Aug 13 2009 12:49:06
Библиотека кодирования : libebml v0.7.7 + libmatroska v0.8.1

Видео
Идентификатор : 1
Формат : AVC
Формат/Информация : Advanced Video Codec
Профиль формата : [email protected]
Параметр CABAC формата : Да
Параметр ReFrames формата : 7 кадров
Идентификатор кодека : V_MPEG4/ISO/AVC
Продолжительность : 1 ч. 34 м.
Битрейт : 5107 Кбит/сек
Ширина : 1280 пикселей
Высота : 544 пикселя
Соотношение сторон : 2,35:1
Режим частоты кадров : Постоянный
Частота кадров : 23,976 кадра/сек
Цветовое пространство : YUV
Субдискретизация насыщенности : 4:2:0
Битовая глубина : 8 бит
Тип развёртки : Прогрессивная
Бит/(Пиксели*Кадры) : 0.306
Размер потока : 3,28 Гбайт (75%)
Библиотека кодирования : x264 core 66 r1086M 39a2796
Настройки программы : cabac=1 / ref=7 / deblock=1:0:0 / analyse=0x3:0x113 / me=umh / subme=9 / psy_rd=2.0:0.0 / mixed_ref=1 / me_range=24 / chroma_me=1 / trellis=2 / 8x8dct=1 / cqm=0 / deadzone=21,11 / chroma_qp_offset=-2 / threads=3 / nr=0 / decimate=1 / mbaff=0 / bframes=6 / b_pyramid=1 / b_adapt=2 / b_bias=0 / direct=3 / wpredb=1 / keyint=250 / keyint_min=25 / scenecut=40(pre) / rc=2pass / bitrate=5107 / ratetol=1.0 / qcomp=0.60 / qpmin=10 / qpmax=51 / qpstep=4 / cplxblur=20.0 / qblur=0.5 / ip_ratio=1.40 / pb_ratio=1.30 / aq=1:1.00
Язык : English
Default : Да
Forced : Нет

Аудио #1
Идентификатор : 2
Формат : AC-3
Формат/Информация : Audio Coding 3
Расширение режима : CM (complete main)
Параметр Endianness формата : Big
Идентификатор кодека : A_AC3
Продолжительность : 1 ч. 34 м.
Вид битрейта : Постоянный
Битрейт : 384 Кбит/сек
Каналы : 6 каналов
Расположение каналов : Front: L C R, Side: L R, LFE
Частота : 48,0 КГц
Битовая глубина : 16 бит
Метод сжатия : С потерями
Размер потока : 259 Мбайт (6%)
Язык : Russian
Default : Да
Forced : Нет

Аудио #2
Идентификатор : 3
Формат : AC-3
Формат/Информация : Audio Coding 3
Расширение режима : CM (complete main)
Параметр Endianness формата : Big
Идентификатор кодека : A_AC3
Продолжительность : 1 ч. 34 м.
Вид битрейта : Постоянный
Битрейт : 384 Кбит/сек
Каналы : 6 каналов
Расположение каналов : Front: L C R, Side: L R, LFE
Частота : 48,0 КГц
Битовая глубина : 16 бит
Метод сжатия : С потерями
Размер потока : 259 Мбайт (6%)
Язык : Ukrainian
Default : Нет
Forced : Нет

Аудио #3
Идентификатор : 4
Формат : DTS
Формат/Информация : Digital Theater Systems
Режим : 16
Параметр Endianness формата : Big
Идентификатор кодека : A_DTS
Продолжительность : 1 ч. 34 м.
Вид битрейта : Постоянный
Битрейт : 755 Кбит/сек
Каналы : 6 каналов
Расположение каналов : Front: L C R, Side: L R, LFE
Частота : 48,0 КГц
Битовая глубина : 24 бит
Метод сжатия : С потерями
Размер потока : 508 Мбайт (11%)
Язык : English
Default : Нет
Forced : Нет

Текст #1
Идентификатор : 5
Формат : UTF-8
Идентификатор кодека : S_TEXT/UTF8
Идентификатор кодека/Информация : UTF-8 Plain Text
Язык : Russian
Default : Да
Forced : Нет

Текст #2
Идентификатор : 6
Формат : UTF-8
Идентификатор кодека : S_TEXT/UTF8
Идентификатор кодека/Информация : UTF-8 Plain Text
Язык : English
Default : Нет
Forced : Нет


Первобытное зло скачать торрент








Скачать Первобытное зло через торрент https://pic1.kartinco.top/images/21/35txgxb1vf.gif Скачать, смотреть онлайн Первобытное зло бесплантно в хорошем качестве Описание: Этот серийный убийца скрывается в африканских джунглях и считается одним из самых опасных. На его счету больше жертв, чем у ... 9.4 10 20
Info! Золотая раздача, скачанное не засчитывается.
Торрент: Зарегистрирован [2013-06-07 12:10] · скачан: 130 раз
Статус: √ проверено
Размер: 4.36 GB
Как cкачать? Как скачать Первобытное зло через торрент | UTorrent

28-11-2019 20:33  


Отключить вcю реклaмy на сайте, в т.ч. и в плеере онлайн просмотра!

    Дорогой пользователь! Огромная просьба, поблагодарите релизера, оцените раздачу и оставьте свои комментарий, если Вы скачали Первобытное зло через торрент бесплатно!!
    Комментировать посты могут только пользователи прошедшие не сложную регистрацию
    Показать сообщения:    


    Первобытное зло через торрент
    Скачать бесплатно Первобытное зло
    Первобытное зло скачать торрент
    Первобытное зло смотреть онлайн
    Cкачать фильм Первобытное зло бесплатно
    Первобытное зло скачать торрент в хорошем качестве
    Первобытное зло смотреть онлайн бесплатно в хорошем качестве
    Вы не можете начинать темы
    Вы не можете отвечать на сообщения
    Вы не можете редактировать свои сообщения
    Вы не можете удалять свои сообщения
    Вы не можете голосовать в опросах
    Вы не можете прикреплять файлы к сообщениям
    Вы можете скачивать файлы
    Первобытное зло / Primeval [2007 г., ужасы, боевик, триллер, приключения, BDRip 720p, Дубляж, лицензия] смотреть онлайн, скачать торрент picoco.icu