1 сезон

3 сезон

iTunes

1

iTunes

MVO

iTunes

13

1 сезон

RePack

30

Deluxe

pack

Лицензия

ВАЖНО

ИГРА 18+

pack

RePack

MK11

RePack

jed

RePack

fifa19

RePack

RDR2

RePack

NEED FOR SPEED™ PAYBACK

4 сезон

9 сезон

Бесстыжие 9 сезон

Все сериалы

все сериалы на PB.wtf

RePack

FAR CRY 5

Anonymous, доброе утро, мы катастрофически не успеваем собрать деньги на оплату серверов, помогите нам пожалуйста 5,10,15р., для нас важна любая помощь . В качестве благодарности мы отключим Вам всю рекламу на сайте (укажите свой ник в строку Ваше имя)!

×
  
Magnet ссылка

Приключения Гекльберри Финна / Die Abenteuer des Huck Finn (Гермина Хунтгебурт / Hermine Huntgeburth) [2012, приключения, семейный, DVD5] R5 pb.wtf

Приключения Гекльберри Финна через торрент pb.wtf

Размер: 4.36 GB | Добавлен: 8 лет 1 мес. назад | Торрент скачан:143 раза
Скачать  

08-06-2013 06:27 Приключения Гекльберри Финна Скачать торрент  


Приключения Гекльберри Финна / Die Abenteuer des Huck Finn
Страна: Германия
Студия: ARD Degeto Film GmbH, arte, Bayerischer Rundfunk (BR), Filmaufbau Leipzig, Majestic Filmproduktion, MMC Independent GmbH, Neue Schönhauser Filmproduktion, Westdeutscher Rundfunk (WDR)
Жанр: приключения, семейный
Год выпуска: 2012
Мировая премьера: 3 октября 2012
Российская премьера: 9 мая 2013
Дата выхода DVD: 10 Июня 2013
Дата выхода Blu-Ray: 30 Июня 2013
Продолжительность: 01:42:56
Перевод: Профессиональный (дублированный) [Лицензия]
Cубтитры: нет
Оригинальная аудиодорожка: нет
Режиссер: Гермина Хунтгебурт / Hermine Huntgeburth
В ролях: Леон Сидел, Луис Хофманн, Джеки Идо, Аугуст Диль, Хайке Макач, Петер Ломайер, Михаэль Гвиздек, Курт Крюмер, Хиннерк Шонеманн, Хенри Хюбхен
Описание: Кто не знает Тома Сойера и Гекльберри Финна? Найдя сокровища, эти два проказника наконец разбогатели. Однако «свободный волк» Гек не может усидеть на месте. К тому же его добрый друг, чернокожий Джим, в опасности — хозяйка собирается продать его на аукционе. В компании Джима Гек отправляется мимо диких берегов Миссисипи — сначала в Каир, а потом и в Огайо, в свободную страну, не знающую рабства… А значит, впереди беглецов ждёт множество самых невероятных приключений! Будет ли счастливый конец у этой полной опасностей истории? И увидятся ли снова закадычные друзья Том Сойер и Гекльберри Финн?
Бонусы: нет

Релиз группы:
Качество: DVD5 R5
Формат: DVD-Video
Видео кодек: MPEG2
Аудио кодек: AC3
Видео: PAL 16:9 (720x576(0.503)) MPEG Video, 25,000 кадр/сек, 5214 Кбит/сек
Аудио #1: Russian (Dolby AC3, 6 ch) 448 Кбит/сек, 48,0 КГц
Аудио #2: Russian (Dolby AC3, 2 ch) 192 Кбит/сек, 48,0 КГц



Title: Prikljuchenija.Geklberri.Finna.2012.DVD5
Size: 4.36 Gb ( 4 574 108,00 KBytes ) - DVD-5
Enabled regions: 1, 2, 3, 4, 5, 6, 7, 8

VTS_01 :
Play Length: 00:00:19
Video: PAL 4:3 (720x576) VBR
Audio:
Russian (Dolby AC3, 2 ch)

VTS_02 :
Play Length: 00:00:02
Video: PAL 16:9 (720x576) VBR, Auto Letterboxed
Audio:
Russian (Dolby AC3, 2 ch)

VTS_03 :
Play Length: 01:42:56
Video: PAL 16:9 (720x576) VBR, Auto Letterboxed
Audio:
Russian (Dolby AC3, 2 ch)
Russian (Dolby AC3, 6 ch)

* Menus Information *

VIDEO_TS Menu
Video:
PAL 4:3 (720x576) VBR
English Language Unit :
Title Menu

VTS_01 Menu
Video:
PAL 4:3 (720x576) VBR
English Language Unit :
Root Menu

VTS_02 Menu
Video:
PAL 16:9 (720x576) VBR
Auto Letterboxed
Audio:
Not specified (Dolby AC3, 2 ch)
English Language Unit :
Root Menu

VTS_03 Menu
Video:
PAL 4:3 (720x576) VBR
English Language Unit :
Root Menu
Audio Menu
Chapter (PTT) Menu
Общее
Полное имя : M:Новинки 2013Prikljuchenija.Geklberri.Finna.2012.DVD5VIDEO_TSVTS_03_2.VOB
Формат : MPEG-PS
Размер файла : 1024 Мбайт
Продолжительность : 23 м.
Режим общего битрейта : Переменный
Общий поток : 5973 Кбит/сек

Видео
Идентификатор : 224 (0xE0)
Формат : MPEG Video
Версия формата : Version 2
Профиль формата : Main@Main
Параметр BVOP формата : Да
Параметр матрицы формата : Выборочная
Параметр GOP формата : Variable
Продолжительность : 23 м.
Вид битрейта : Переменный
Битрейт : 5214 Кбит/сек
Максимальный битрейт : 9800 Кбит/сек
Ширина : 720 пикселей
Высота : 576 пикселей
Соотношение сторон : 16:9
Частота кадров : 25,000 кадров/сек
Стандарт вещания : PAL
Цветовое пространство : YUV
Субдискретизация насыщенности : 4:2:0
Битовая глубина : 8 бит
Тип развёртки : Чересстрочная
Порядок развёртки : Верхнее поле первое
Метод сжатия : С потерями
Бит/(Пиксели*Кадры) : 0.503
TimeCode_FirstFrame : 01:24:18:06
TimeCode_Source : Group of pictures header
Размер потока : 894 Мбайт (87%)

Аудио #1
Идентификатор : 189 (0xBD)-128 (0x80)
Формат : AC-3
Формат/Информация : Audio Coding 3
Расширение режима : CM (complete main)
Параметр Endianness формата : Big
Режим смешивания : DVD-Video
Продолжительность : 23 м.
Вид битрейта : Постоянный
Битрейт : 192 Кбит/сек
Каналы : 2 канала
Расположение каналов : Front: L R
Частота : 48,0 КГц
Битовая глубина : 16 бит
Метод сжатия : С потерями
Задержка видео : -416 мс.
Размер потока : 32,9 Мбайт (3%)

Аудио #2
Идентификатор : 189 (0xBD)-129 (0x81)
Формат : AC-3
Формат/Информация : Audio Coding 3
Расширение режима : CM (complete main)
Параметр Endianness формата : Big
Режим смешивания : DVD-Video
Продолжительность : 23 м.
Вид битрейта : Постоянный
Битрейт : 448 Кбит/сек
Каналы : 6 каналов
Расположение каналов : Front: L C R, Side: L R, LFE
Частота : 48,0 КГц
Битовая глубина : 16 бит
Метод сжатия : С потерями
Задержка видео : -480 мс.
Размер потока : 76,8 Мбайт (8%)










pb.wtf



Скачать Приключения Гекльберри Финна через торрент http://s018.radikal.ru/i521/1306/60/824cff7628c1.jpg Скачать фильм Приключения Гекльберри Финна через торрент бесплантно в хорошем качестве Описание: Кто не знает Тома Сойера и Гекльберри Финна? Найдя сокровища, эти два проказника наконец разбогатели. Однако «свободный волк» Гек ... 10 10 5
Info! Золотая раздача, скачанное не засчитывается.
Торрент: Зарегистрирован [2013-06-08 06:27] · скачан: 143 раз
Статус: √ проверено
Размер: 4.36 GB
Как cкачать? Как скачать Приключения Гекльберри Финна через торрент | UTorrent

28-11-2019 20:33  

Отключить всю рекламу на сайте

    Дорогой пользователь! Огромная просьба, поблагодарите релизера, оцените раздачу и оставьте свои комментарий, если Вы скачали Приключения Гекльберри Финна через торрент бесплатно! Внесите свою лепту в развитие PiratBit!
    Комментировать посты могут только пользователи прошедшие не сложную регистрацию
    Показать сообщения:    

    Приключения Гекльберри Финна через торрент
    Скачать бесплатно Приключения Гекльберри Финна
    Приключения Гекльберри Финна скачать торрент
    Приключения Гекльберри Финна смотреть онлайн
    Cкачать фильм Приключения Гекльберри Финна бесплатно
    Приключения Гекльберри Финна скачать торрент в хорошем качестве
    Приключения Гекльберри Финна смотреть онлайн бесплатно в хорошем качестве


    Вы не можете начинать темы
    Вы не можете отвечать на сообщения
    Вы не можете редактировать свои сообщения
    Вы не можете удалять свои сообщения
    Вы не можете голосовать в опросах
    Вы не можете прикреплять файлы к сообщениям
    Вы можете скачивать файлы