2 сезон

iTunes

MVO

1

2 сезон

iTunes

iTunes

1 сезон

RePack

30

Ultimate

ВАЖНО

ИГРА 18+

pack

RePack

MK11
pack

Легкие деньги

RePack

jed

RePack

fifa19

RePack

RDR2

RePack

NEED FOR SPEED™ PAYBACK

4 сезон

9 сезон

Бесстыжие 9 сезон

Все сериалы

все сериалы на PB.wtf

RePack

FAR CRY 5

Anonymous, доброй ночи, мы не успеваем собрать деньги на оплату серверов за декабрь и январь, помогите нам пожалуйста в это трудное время. В качестве благодарности мы отключим Вам всю рекламу на сайте (укажите свой ник в строку Ваше имя)!

×
  
Magnet ссылка

Отдел любви / The Love Section (Ронни Уорнер) [2013 г., Драма, мелодрама, комедия, WEB-DLRip, Профессиональный одноголосый] pb.wtf

Отдел любви через торрент pb.wtf

Размер: 1.36 GB | Добавлен: 7 лет 7 мес. назад | Торрент скачан:348 раз
Скачать  

09-06-2013 06:04 Отдел любви Скачать торрент  

Отдел любви / The Love Section
Год выпуска: 2013
Страна: США
Жанр: Драма, мелодрама, комедия,
Продолжительность: 01:40:31
Перевод: Профессиональный (одноголосый,закадровый)[А.Дольский]
Субтитры: нет

Режиссер: Ронни Уорнер
Продюссер: Lawrence B. Adisa, Ронни Уорнер, Dawn Edmond,
Сценарий: Lawrence B. Adisa

Премьера в мире: 01.01.2013




В ролях: Мехи Файфер, Lawrence B. Adisa, Брайан Хукс, Даветта Шервуд, Келлита Смит, Омар Бенсон Миллер, Танги Миллер, Тейяна Тейлор, Terence Mathews II, Юджин Лонг, Ронни Уорнер, Ричард Уайтен, Сиарра Картер, Dawn Edmond, Джошуа Лу Фридман, Кеннеди Голдсби, Brandon Heitkamp, Энтони Джонсон, Masika Kalysha, Jessica Keenan, Альфонсо Кристиан Ловер, Debra J. Michaels, Suavexxx Pornstar, Тайлар Спаркс, Сид Уайлдер, Билли «Слай» Уильямс, Рэйвен Уильямс,

Описание: Однажды Али, преуспевающий агент по продаже недвижимости, встречает Сандрину - мать-одиночку - и сразу же влюбляется в нее. И она сразу же отвечает ему взаимностью Казалось бы они нашли свое счастье, но вот Али подворачивается сделка, которая может навсегда изменить его жизнь, и тут выясняется, что его новые отношения несовместимы с карьерным ростом. Смогут ли влюбленные вместе преодолеть все препятствия? Или же всё, что останется от их романа - лишь разбитые сердца?

Качество: WEB-DLRip
Формат: AVI
Видео кодек: XviD
Аудио кодек: AC3
Видео: 720x400(16.9), 23.976fps,Xvid MPEG-4 ~ 1539 kbps 0.23 bit/pixel
Аудио#1: 48 kHz, Dolby AC3, 6ch, ~384 kbps



Format/Info : Audio Video Interleave
File size : 1.36 GiB
Duration : 1h 40mn
Overall bit rate : 1 933 Kbps
Movie name : blabla
Writing application : VirtualDubMod 1.5.10.2 (build 2540/release)
Writing library : VirtualDubMod build 2540/release

Video
ID : 0
Format : MPEG-4 Visual
Format profile : Advanced Simple@L5
Format settings, BVOP : 2
Format settings, QPel : No
Format settings, GMC : No warppoints
Format settings, Matrix : Default (H.263)
Muxing mode : Packed bitstream
Codec ID : XVID
Codec ID/Hint : XviD
Duration : 1h 40mn
Bit rate : 1 540 Kbps
Width : 720 pixels
Height : 400 pixels
Display aspect ratio : 16:9
Frame rate : 23.976 fps
Color space : YUV
Chroma subsampling : 4:2:0
Bit depth : 8 bits
Scan type : Progressive
Compression mode : Lossy
Bits/(Pixel*Frame) : 0.223
Stream size : 1.08 GiB (80%)
Writing library : XviD 64

Audio
ID : 1
Format : AC-3
Format/Info : Audio Coding 3
Mode extension : CM (complete main)
Format settings, Endianness : Big
Codec ID : 2000
Duration : 1h 40mn
Bit rate mode : Constant
Bit rate : 384 Kbps
Channel(s) : 6 channels
Channel positions : Front: L C R, Side: L R, LFE
Sampling rate : 48.0 KHz
Bit depth : 16 bits
Compression mode : Lossy
Stream size : 276 MiB (20%)
Alignment : Split accross interleaves
Interleave, duration : 42 ms (1.00 video frame)
Interleave, preload duration : 500 ms

pb.wtf



Скачать Отдел любви через торрент http://pic.kartinco.top/images/2/sbln8hvnhe.jpg Скачать фильм Отдел любви через торрент бесплантно в хорошем качестве Описание: Однажды Али, преуспевающий агент по продаже недвижимости, встречает Сандрину - мать-одиночку - и сразу же влюбляется в нее. И она ... 7.9 10 9
Info! Золотая раздача, скачанное не засчитывается.
Торрент: Зарегистрирован [2013-06-09 06:04] · скачан: 348 раз
Статус: √ проверено
Размер: 1.36 GB
Как cкачать? Как скачать Отдел любви через торрент | UTorrent

28-11-2019 20:33  

Отключить всю рекламу на сайте

23-06-2013 17:09 Отдел любви Скачать торрент  

сюжет угар, да ещё чёрные - это фантастикаpb.wtf



    Дорогой пользователь! Огромная просьба, поблагодарите релизера, оцените раздачу и оставьте свои комментарий, если Вы скачали Отдел любви через торрент бесплатно! Внесите свою лепту в развитие PiratBit!
    Комментировать посты могут только пользователи прошедшие не сложную регистрацию
    Показать сообщения:    

    Отдел любви через торрент
    Скачать бесплатно Отдел любви
    Отдел любви скачать торрент
    Отдел любви смотреть онлайн
    Cкачать фильм Отдел любви бесплатно
    Отдел любви скачать торрент в хорошем качестве
    Отдел любви смотреть онлайн бесплатно в хорошем качестве


    Вы не можете начинать темы
    Вы не можете отвечать на сообщения
    Вы не можете редактировать свои сообщения
    Вы не можете удалять свои сообщения
    Вы не можете голосовать в опросах
    Вы не можете прикреплять файлы к сообщениям
    Вы можете скачивать файлы