Ссылка на приватное зеркало нашего сайта всего за 1$. Внимание количество ограничено!!!

2 сезон

iTunes

1 сезон

1

iTunes

iTunes

iTunes

1 сезон

RePack

30

ИГРА 18+

pack

ВАЖНО

!!Акция!!

Alien_RageХит недели

RePack

MK11
pack

Забери бонус

RePack

jed

!!Акция!!

Alien_Rage

RePack

fifa19

RePack

Assassins Creed: Odyssey

RePack

NEED FOR SPEED™ PAYBACK

4 сезон

9 сезон

Бесстыжие 9 сезон

Все сериалы

все сериалы на PB.wtf

RePack

FAR CRY 5
  

Остров сокровищ / Treasure Island (Стив Бэррон) [2011 г., приключения, BDRip 720p, MVO, лицензия] pb.wtf

Остров сокровищ через торрент pb.wtf

Размер: 12.12 GB | Добавлен: 7 лет 4 мес. назад | Торрент скачан:102 раза
Скачать  

10-06-2013 10:26 Остров сокровищ Скачать торрент  

Остров Сокровищ / Treasure Island Год выпуска: 2011
Страна: Ирландия Великобритания
Жанр: приключения
Продолжительность: 03:02:14
Перевод: Профессиональный многоголосый, Лицензия
Тип релиза: Лицензия
Субтитры: Есть

Режиссер: Стив Бэррон
Продюссер: Лори Борг, Алан Молони, Энн Броган
Сценарий: Стюарт Харкорт, Роберт Льюис Стивенсон

Премьера в мире: 1 января 2012

Зрителям, достигшим 16 лет

IMDB 6.20 (3 188)



В ролях: Эдди Иззард, Тоби Регбо, Руперт Пенри-Джонс, Дэниэл Мейс, Филип Гленистер, Дональд Сазерленд, Элайджа Вуд, Ширли Хендерсон, Нина Сосанья, Джофф Белл

Описание: Юный Джим Хокинс и его старшие друзья - доктор Ливси и сквайр Трелони - становятся обладателями карты, когда-то принадлежавшей легендарному капитану Флинту. На ней указаны координаты затерянного в Атлантическом океане острова, где спрятаны сокровища знаменитого флибустьера. Вскоре на шхуне "Испаньола" они начинают опасное плавание, не догадываясь, что вместе с ними за кладом, притворившись скромным корабельным коком, отправился кровожадный пират Джон Сильвер, а с ним - несколько его безжалостных сообщников из команды Флинта...

Качество: BDRip 720p
Формат: MKV
Видео кодек: H.264
Аудио кодек: DTS
Видео: 1280x720 (16:9), 24.000 fps, 6 500 Kbps (0.294 bit/pixel)
Аудио#1: DTS, 48.0 KHz, 6 ch, 1 510 Kbps, CBR (Russian)
Аудио#2: DTS, 48.0 KHz, 6 ch, 1 510 Kbps, CBR (English)
Субтитры: Russian, English








Общее
Уникальный идентификатор : 253709854181832466699443810690854514297 (0xBEDEBD93BBE382849DAD9A80E5336E79)
Полное имя : E:Остров Сокровищ .2012.BDRip.720p.mkv
Формат : Matroska
Версия формата : Version 2
Размер файла : 12,1 Гбайт
Продолжительность : 3 ч. 2 м.
Общий поток : 9519 Кбит/сек
Название фильма : Остров Сокровищ
Дата кодирования : UTC 2012-07-24 22:04:41
Программа кодирования : mkvmerge v2.9.9
Библиотека кодирования : libebml v0.7.9 + libmatroska v0.8.1

Видео
Идентификатор : 1
Формат : AVC
Формат/Информация : Advanced Video Codec
Профиль формата : High@L4.0
Параметр CABAC формата : Да
Параметр ReFrames формата : 9 кадров
Идентификатор кодека : V_MPEG4/ISO/AVC
Продолжительность : 3 ч. 2 м.
Битрейт : 6500 Кбит/сек
Ширина : 1280 пикселей
Высота : 720 пикселей
Соотношение сторон : 16:9
Режим частоты кадров : Постоянный
Частота кадров : 24,000 кадра/сек
Цветовое пространство : YUV
Субдискретизация насыщенности : 4:2:0
Битовая глубина : 8 бит
Тип развёртки : Прогрессивная
Бит/(Пиксели*Кадры) : 0.294
Размер потока : 8,03 Гбайт (66%)
Заголовок : Treasure.Island.2012.BDRip.720p
Библиотека кодирования : x264 core 116 r2074 2641b9e
Настройки программы : cabac=1 / ref=9 / deblock=1:0:0 / analyse=0x3:0x113 / me=umh / subme=9 / psy=1 / psy_rd=1.00:0.00 / mixed_ref=1 / me_range=32 / chroma_me=1 / trellis=2 / 8x8dct=1 / cqm=0 / deadzone=21,11 / fast_pskip=1 / chroma_qp_offset=-2 / threads=12 / sliced_threads=0 / nr=0 / decimate=1 / interlaced=0 / bluray_compat=0 / constrained_intra=0 / bframes=9 / b_pyramid=2 / b_adapt=1 / b_bias=0 / direct=1 / weightb=1 / open_gop=0 / weightp=2 / keyint=250 / keyint_min=24 / scenecut=40 / intra_refresh=0 / rc_lookahead=40 / rc=2pass / mbtree=1 / bitrate=6500 / ratetol=1.0 / qcomp=0.70 / qpmin=10 / qpmax=51 / qpstep=4 / cplxblur=20.0 / qblur=0.5 / ip_ratio=1.40 / aq=1:1.00
Язык : English
Default : Нет
Forced : Нет

Аудио #1
Идентификатор : 2
Формат : DTS
Формат/Информация : Digital Theater Systems
Режим : 16
Параметр Endianness формата : Big
Идентификатор кодека : A_DTS
Продолжительность : 3 ч. 2 м.
Вид битрейта : Постоянный
Битрейт : 1509 Кбит/сек
Каналы : 6 каналов
Расположение каналов : Front: L C R, Side: L R, LFE
Частота : 48,0 КГц
Битовая глубина : 16 бит
Метод сжатия : С потерями
Задержка видео : 11 мс.
Размер потока : 1,92 Гбайт (16%)
Заголовок : DTS.1510.Kbps.Russian
Язык : Russian
Default : Да
Forced : Нет

Аудио #2
Идентификатор : 3
Формат : DTS
Формат/Информация : Digital Theater Systems
Режим : 16
Параметр Endianness формата : Big
Идентификатор кодека : A_DTS
Продолжительность : 3 ч. 2 м.
Вид битрейта : Постоянный
Битрейт : 1509 Кбит/сек
Каналы : 6 каналов
Расположение каналов : Front: L C R, Side: L R, LFE
Частота : 48,0 КГц
Битовая глубина : 16 бит
Метод сжатия : С потерями
Задержка видео : 11 мс.
Размер потока : 1,92 Гбайт (16%)
Заголовок : DTS.1510.Kbps.English
Язык : English
Default : Нет
Forced : Нет

Текст #1
Идентификатор : 4
Формат : UTF-8
Идентификатор кодека : S_TEXT/UTF8
Идентификатор кодека/Информация : UTF-8 Plain Text
Заголовок : Russian (SRT)
Язык : Russian
Default : Нет
Forced : Нет

Текст #2
Идентификатор : 5
Формат : UTF-8
Идентификатор кодека : S_TEXT/UTF8
Идентификатор кодека/Информация : UTF-8 Plain Text
Заголовок : English (SRT)
Язык : English
Default : Нет
Forced : Нет

Меню
00:00:00.000 : en:Chapter 00
00:05:00.666 : en:Chapter 01
00:14:30.916 : en:Chapter 02
00:28:05.833 : en:Chapter 03
00:42:18.666 : en:Chapter 04
00:53:24.041 : en:Chapter 05
01:03:48.125 : en:Chapter 06
01:14:12.791 : en:Chapter 07
01:23:41.583 : en:Chapter 08
01:30:00.000 : en:Chapter 09
01:35:33.125 : en:Chapter 10
01:40:01.000 : en:Chapter 11
02:04:15.833 : en:Chapter 12
02:18:10.500 : en:Chapter 13
02:32:18.208 : en:Chapter 14
02:45:34.083 : en:Chapter 15
03:00:19.916 : en:Chapter 16


Остров сокровищ скачать торрент


pb.wtf



Скачать Остров сокровищ через торрент http://pic.kartinco.top/images/2/8fdmq8h1bh.jpg Скачать фильм Остров сокровищ через торрент бесплантно в хорошем качестве Описание: Юный Джим Хокинс и его старшие друзья - доктор Ливси и сквайр Трелони - становятся обладателями карты, когда-то принадлежавшей ... 9.9 10 15
Info! Золотая раздача, скачанное не засчитывается.
Торрент: Зарегистрирован [2013-06-10 10:26] · скачан: 102 раз
Статус: √ проверено
Размер: 12.12 GB
Как cкачать? Как скачать Остров сокровищ через торрент | qTorrent

% Раздел Тема Автор DL S | L
Порно фильмы с русским переводом [ 1.71 GB ] Остров Сокровищ / Selen the Girl of Treasure Island / Selen nell'Isola del Tesoro [1998 Feature Anal DP DVDRip Одноголосый SP Company] sheker187 Скачать
1 | 0
Discovery [ 7.73 GB ] Discovery. В поисках сокровищ: змеиный остров / Treasure Quest: Snake Island [01-06 из 06] VO кэп Скачать
1 | 0
Фильмы (Blu-ray, BD-Remux, HDDVD) [ 21.05 GB ] Остров сокровищ / Treasure Island [2012 Blu-Ray Remux "Вольга" R5] VintMosina Скачать
1 | 0
Классика зарубежного кино [ 1.46 GB ] Остров Сокровищ / Treasure Island [1950 DVDRip Любительский одноголосый] Magnat Скачать
1 | 0
Иностранные мультфильмы [ 1.37 GB ] Американская история 3: Сокровища острова Манхэттен / An American Tail: The Treasure of Manhattan Island [1998 Мультфильм DVDRip] DUB Серёжк@ Скачать
1 | 0
Порно фильмы с русским переводом [ 1013 MB ] Остров Сокровищ / Selen the Girl of the Treasure Island [1998 Feature & vignettes DVDRip двухголосый .] 19alexei87 Скачать
1 | 0
Порно фильмы с русским переводом [ 1.01 GB ] Остров Сокровищ / Selen on Treasure Island [1998 Feature & vignettes All Sex Anal Group Sex Hardcore VHSRip] 19alexei87 Скачать
1 | 0

28-11-2019 20:33  

Отключить всю рекламу на сайте

02-04-2015 12:37 Остров сокровищ Скачать торрент  

нет?pb.wtf



    Дорогой пользователь! Огромная просьба, поблагодарите релизера, оцените раздачу и оставьте свои комментарий, если Вы скачали Остров сокровищ через торрент бесплатно! Внесите свою лепту в развитие PiratBit!
    Комментировать посты могут только пользователи прошедшие не сложную регистрацию
    Показать сообщения:    

    Остров сокровищ через торрент
    Скачать бесплатно Остров сокровищ
    Остров сокровищ скачать торрент
    Остров сокровищ смотреть онлайн
    Cкачать фильм Остров сокровищ бесплатно
    Остров сокровищ скачать торрент в хорошем качестве
    Остров сокровищ смотреть онлайн бесплатно в хорошем качестве


    Вы не можете начинать темы
    Вы не можете отвечать на сообщения
    Вы не можете редактировать свои сообщения
    Вы не можете удалять свои сообщения
    Вы не можете голосовать в опросах
    Вы не можете прикреплять файлы к сообщениям
    Вы можете скачивать файлы