2 сезон

iTunes

MVO

1

2 сезон

iTunes

1 сезон

1 сезон

RePack

30

Ultimate

ВАЖНО

ИГРА 18+

pack

RePack

MK11
pack

Легкие деньги

RePack

jed

RePack

fifa19

RePack

RDR2

RePack

NEED FOR SPEED™ PAYBACK

4 сезон

9 сезон

Бесстыжие 9 сезон

Все сериалы

все сериалы на PB.wtf

RePack

FAR CRY 5

Anonymous, добрый вечер, мы не успеваем собрать деньги на оплату серверов за декабрь и январь, помогите нам пожалуйста в это трудное время. В качестве благодарности мы отключим Вам всю рекламу на сайте (укажите свой ник в строку Ваше имя)!

×
  
Magnet ссылка

Президент Линкольн: Охотник на вампиров / Abraham Lincoln: Vampire Hunter (Тимур Бекмамбетов) [2012 г., ужасы, фэнтези, боевик, триллер, BDRip 1080p, Дубляж, лицензия] Half OverUnder / Вертикальная анаморфная стереопара pb.wtf

Президент Линкольн: Охотник на вампиров через торрент pb.wtf

Размер: 11.5 GB | Добавлен: 7 лет 7 мес. назад | Торрент скачан:444 раза
Скачать  

10-06-2013 11:42 Президент Линкольн: Охотник на вампиров Скачать торрент  



Президент Линкoльн: Охoтник на вaмпиров /

Abrаham Lincоln: Vаmpire Huntеr
«Президент днём. Охотник ночью» Год выпуска: 2012
Страна: США
Жанр: ужасы, фэнтези, боевик, триллер
Продолжительность: 01:45:01
Перевод: Дубляж, Лицензия
Тип релиза: Лицензия
Субтитры: Есть

Режиссер: Тимур Бекмамбетов
Продюссер: Тимур Бекмамбетов, Тим Бёртон, Джим Лемли
Сценарий: Сет Грэм-Смит

Бюджет: $69 000 000
Премьера в мире: 18 июня 2012



IMDB 5.90 (77 949)

Роли исполняли (дублировали):

Авраам Линкольн - Бенджамин Уокер (Иван Жарков)
Генри Стёрджес - Доминик Купер
Уилл Джонсон - Энтони Маки (Пётр Иващенко)
Мэри Тодд Линкольн - Мэри Элизабет Уинстэд (Рамиля Искандер)
Адам - Руфус Сьюэлл (Виктор Вержбицкий)
Джек Бартс - Мартон Чокаш
Джошуа Спид - Джимми Симпсон (Илья Хвостиков)
Томас Линкольн - Джозеф Моул (Даниил Эльдаров)
Нэнси Линкольн - Робин МакЛиви
Вэдома - Эрин Уоссон
Джефферсон Дэвис - Джон Ротмен
Описание: Сюжет фильма раскрывает тайную жизнь Величайшего Президента Америки Авраама Линкольна — любящего мужа и отца днем и беспощадного убийцу вампиров ночью. Армия кровопийц, которым он бросил вызов, растет с каждым днем. Сможет ли президент великой страны противостоять полчищам вампиров и спасти свою семью и народ от неминуемой гибели?..

Качество: BDRip 1080p
Формат: MKV
Формат 3D: Half OverUnder / Вертикальная анаморфная стереопара
Порядок ракурсов: левый ракурс первый
Видео кодек: H.264
Аудио кодек: AC3
Видео: 1920x1080 (16:9), 23.976 fps, 13.6 Mbps (0.274 bit/pixel)
Аудио #1: AC-3, 48.0 KHz, 6 ch, 640 Kbps, CBR (Russian)
Аудио #2: AC-3, 48.0 KHz, 6 ch, 448 Kbps, CBR (Ukrainian)
Аудио #3: AC-3, 48.0 KHz, 6 ch, 640 Kbps, CBR (English)
Субтитры: Russian, Russian, Russian, Ukrainian, Ukrainian, English, English, English








Общее
Уникальный идентификатор : 173372243245806833012626095874224801292 (0x826E478BF40F02D9B82BE44C4FD1C60C)
Полное имя : E:Президент Линкoльн Охoтник на вaмпиров (3D)2012..mkv
Формат : Matroska
Версия формата : Version 2
Размер файла : 11,5 Гбайт
Продолжительность : 1 ч. 45 м.
Общий поток : 15,7 Мбит/сек
Название фильма : Abraham Lincoln: Vampire Hunter (3D)
Дата кодирования : UTC 2012-10-13 14:11:08
Программа кодирования : mkvmerge v5.8.0 ('No Sleep / Pillow') built on Sep 2 2012 15:37:04
Библиотека кодирования : libebml v1.2.3 + libmatroska v1.3.0

Видео
Идентификатор : 1
Формат : AVC
Формат/Информация : Advanced Video Codec
Профиль формата : High@L4.1
Параметр CABAC формата : Да
Параметр ReFrames формата : 4 кадра
Идентификатор кодека : V_MPEG4/ISO/AVC
Продолжительность : 1 ч. 45 м.
Битрейт : 13,6 Мбит/сек
Ширина : 1920 пикселей
Высота : 1080 пикселей
Соотношение сторон : 16:9
Режим частоты кадров : Постоянный
Частота кадров : 23,976 кадра/сек
Цветовое пространство : YUV
Субдискретизация насыщенности : 4:2:0
Битовая глубина : 8 бит
Тип развёртки : Прогрессивная
Бит/(Пиксели*Кадры) : 0.274
Размер потока : 10,0 Гбайт (87%)
Заголовок : BDrip by Ash61
Библиотека кодирования : x264 core 116 r2074 2641b9e
Настройки программы : cabac=1 / ref=4 / deblock=1:-3:-3 / analyse=0x3:0x113 / me=umh / subme=9 / psy=1 / psy_rd=1.00:0.15 / mixed_ref=1 / me_range=16 / chroma_me=1 / trellis=2 / 8x8dct=1 / cqm=0 / deadzone=21,11 / fast_pskip=1 / chroma_qp_offset=-3 / threads=12 / sliced_threads=0 / nr=0 / decimate=1 / interlaced=0 / bluray_compat=0 / constrained_intra=0 / bframes=6 / b_pyramid=2 / b_adapt=2 / b_bias=0 / direct=3 / weightb=1 / open_gop=0 / weightp=2 / keyint=250 / keyint_min=23 / scenecut=40 / intra_refresh=0 / rc_lookahead=60 / rc=crf / mbtree=1 / crf=16.0 / qcomp=0.60 / qpmin=10 / qpmax=51 / qpstep=4 / vbv_maxrate=40000 / vbv_bufsize=40000 / crf_max=0.0 / nal_hrd=none / frame-packing=4 / ip_ratio=1.40 / aq=1:0.70
Язык : English
Default : Да
Forced : Нет

Аудио #1
Идентификатор : 2
Формат : AC-3
Формат/Информация : Audio Coding 3
Расширение режима : CM (complete main)
Параметр Endianness формата : Big
Идентификатор кодека : A_AC3
Продолжительность : 1 ч. 45 м.
Вид битрейта : Постоянный
Битрейт : 640 Кбит/сек
Каналы : 6 каналов
Расположение каналов : Front: L C R, Side: L R, LFE
Частота : 48,0 КГц
Битовая глубина : 16 бит
Метод сжатия : С потерями
Размер потока : 481 Мбайт (4%)
Заголовок : Дубляж - BD 3D
Язык : Russian
Default : Да
Forced : Нет

Аудио #2
Идентификатор : 3
Формат : AC-3
Формат/Информация : Audio Coding 3
Расширение режима : CM (complete main)
Параметр Endianness формата : Big
Идентификатор кодека : A_AC3
Продолжительность : 1 ч. 45 м.
Вид битрейта : Постоянный
Битрейт : 448 Кбит/сек
Каналы : 6 каналов
Расположение каналов : Front: L C R, Side: L R, LFE
Частота : 48,0 КГц
Битовая глубина : 16 бит
Метод сжатия : С потерями
Размер потока : 336 Мбайт (3%)
Заголовок : Дубляж - BD 3D
Язык : Ukrainian
Default : Нет
Forced : Нет

Аудио #3
Идентификатор : 4
Формат : AC-3
Формат/Информация : Audio Coding 3
Расширение режима : CM (complete main)
Параметр Endianness формата : Big
Идентификатор кодека : A_AC3
Продолжительность : 1 ч. 45 м.
Вид битрейта : Постоянный
Битрейт : 640 Кбит/сек
Каналы : 6 каналов
Расположение каналов : Front: L C R, Side: L R, LFE
Частота : 48,0 КГц
Битовая глубина : 16 бит
Метод сжатия : С потерями
Размер потока : 481 Мбайт (4%)
Заголовок : Original
Язык : English
Default : Нет
Forced : Нет

Текст #1
Идентификатор : 5
Формат : UTF-8
Идентификатор кодека : S_TEXT/UTF8
Идентификатор кодека/Информация : UTF-8 Plain Text
Заголовок : Форсированные
Язык : Russian
Default : Да
Forced : Нет

Текст #2
Идентификатор : 6
Формат : UTF-8
Идентификатор кодека : S_TEXT/UTF8
Идентификатор кодека/Информация : UTF-8 Plain Text
Заголовок : Полные
Язык : Russian
Default : Нет
Forced : Нет

Текст #3
Идентификатор : 7
Формат : UTF-8
Идентификатор кодека : S_TEXT/UTF8
Идентификатор кодека/Информация : UTF-8 Plain Text
Заголовок : Комментарии
Язык : Russian
Default : Нет
Forced : Нет

Текст #4
Идентификатор : 8
Формат : UTF-8
Идентификатор кодека : S_TEXT/UTF8
Идентификатор кодека/Информация : UTF-8 Plain Text
Заголовок : Форсированные
Язык : Ukrainian
Default : Нет
Forced : Нет

Текст #5
Идентификатор : 9
Формат : UTF-8
Идентификатор кодека : S_TEXT/UTF8
Идентификатор кодека/Информация : UTF-8 Plain Text
Заголовок : Полные
Язык : Ukrainian
Default : Нет
Forced : Нет

Текст #6
Идентификатор : 10
Формат : UTF-8
Идентификатор кодека : S_TEXT/UTF8
Идентификатор кодека/Информация : UTF-8 Plain Text
Заголовок : Full
Язык : English
Default : Нет
Forced : Нет

Текст #7
Идентификатор : 11
Формат : UTF-8
Идентификатор кодека : S_TEXT/UTF8
Идентификатор кодека/Информация : UTF-8 Plain Text
Заголовок : SDH
Язык : English
Default : Нет
Forced : Нет

Текст #8
Идентификатор : 12
Формат : UTF-8
Идентификатор кодека : S_TEXT/UTF8
Идентификатор кодека/Информация : UTF-8 Plain Text
Заголовок : Comments
Язык : English
Default : Нет
Forced : Нет

Меню
00:00:00.000 : :1
00:03:48.478 : :2
00:06:52.579 : :3
00:11:06.457 : :4
00:15:10.535 : :5
00:20:07.790 : :6
00:26:46.355 : :7
00:29:22.135 : :8
00:34:13.009 : :9
00:39:04.884 : :10
00:42:42.810 : :11
00:47:25.468 : :12
00:52:50.918 : :13
01:00:39.302 : :14
01:05:16.621 : :15
01:10:33.604 : :16
01:13:21.939 : :17
01:16:41.555 : :18
01:18:46.972 : :19
01:22:41.373 : :20
01:25:28.123 : :21
01:29:00.835 : :22
01:32:23.496 : :23
01:37:55.119 : :24


Президент Линкольн: Охотник на вампиров скачать торрент




[marq=up]
pb.wtf



Скачать Президент Линкольн: Охотник на вампиров через торрент https://pic.kartinco.top/images/2/m1ta1l58io.png Скачать фильм Президент Линкольн: Охотник на вампиров через торрент бесплантно в хорошем качестве Описание: Сюжет фильма раскрывает тайную жизнь Величайшего Президента Америки Авраама Линкольна — любящего мужа и отца днем и беспощадного ... 9.5 10 22
Info! Золотая раздача, скачанное не засчитывается.
Торрент: Зарегистрирован [2013-06-10 11:42] · скачан: 444 раз
Статус: √ проверено
Размер: 11.5 GB
Как cкачать? Как скачать Президент Линкольн: Охотник на вампиров через торрент | UTorrent

28-11-2019 20:33  

Отключить всю рекламу на сайте


29-12-2013 18:37 Президент Линкольн: Охотник на вампиров Скачать торрент  

скорости бы плз )pb.wtf



    Дорогой пользователь! Огромная просьба, поблагодарите релизера, оцените раздачу и оставьте свои комментарий, если Вы скачали Президент Линкольн: Охотник на вампиров через торрент бесплатно! Внесите свою лепту в развитие PiratBit!
    Комментировать посты могут только пользователи прошедшие не сложную регистрацию
    Показать сообщения:    

    Президент Линкольн: Охотник на вампиров через торрент
    Скачать бесплатно Президент Линкольн: Охотник на вампиров
    Президент Линкольн: Охотник на вампиров скачать торрент
    Президент Линкольн: Охотник на вампиров смотреть онлайн
    Cкачать фильм Президент Линкольн: Охотник на вампиров бесплатно
    Президент Линкольн: Охотник на вампиров скачать торрент в хорошем качестве
    Президент Линкольн: Охотник на вампиров смотреть онлайн бесплатно в хорошем качестве


    Вы не можете начинать темы
    Вы не можете отвечать на сообщения
    Вы не можете редактировать свои сообщения
    Вы не можете удалять свои сообщения
    Вы не можете голосовать в опросах
    Вы не можете прикреплять файлы к сообщениям
    Вы можете скачивать файлы