Ссылка на приватное зеркало нашего сайта всего за 1$. Внимание количество ограничено!!!

2 сезон

iTunes

1 сезон

1

iTunes

iTunes

iTunes

1 сезон

RePack

30

ИГРА 18+

pack

ВАЖНО

!!Акция!!

Alien_RageХит недели

RePack

MK11
pack

Забери бонус

RePack

jed

!!Акция!!

Alien_Rage

RePack

fifa19

RePack

Assassins Creed: Odyssey

RePack

NEED FOR SPEED™ PAYBACK

4 сезон

9 сезон

Бесстыжие 9 сезон

Все сериалы

все сериалы на PB.wtf

RePack

FAR CRY 5
  

Пришелец из космоса / Extraterrestre (Начо Вигалондо) [2011 г., фантастика, драма, комедия, BDRip 720p, MVO, лицензия] pb.wtf

Пришелец из космоса через торрент pb.wtf

Размер: 4.61 GB | Добавлен: 7 лет 4 мес. назад | Торрент скачан:83 раза
Скачать  

10-06-2013 12:21 Пришелец из космоса Скачать торрент  

Пришелец из космоса / Extraterrestre Год выпуска: 2011
Страна: Испания
Жанр: фантастика, драма, комедия
Продолжительность: 01:31:02
Перевод: Профессиональный многоголосый, Лицензия
Тип релиза: Лицензия
Субтитры: Есть

Режиссер: Начо Вигалондо
Продюссер: Нахикари Ипинья, Начо Вигалондо, Гаррет Баш
Сценарий: Начо Вигалондо

Бюджет: $2 000 000

Зрителям, достигшим 16 лет

IMDB 5.70 (1 871)



В ролях: Хулиан Вильягран, Мишель Хеннер, Карлос Аресес, Рауль Симас, Мигель Ногера

Описание: Все знают, что делать, если в один прекрасный день все небо заполнят НЛО: бежать со всех ног! Однако что делать, если вторжение началось в тот момент, когда вы находитесь в квартире девушки своей мечты, с которой только что познакомились?

Качество: BDRip 720p
Формат: MKV
Видео кодек: H.264
Аудио кодек: AC3/DTS
Видео: 1280x544 (2.35:1), 25.000 fps, 5 360 Kbps (0.308 bit/pixel)
Аудио#1: AC-3, 48.0 KHz, 6 ch, 384 Kbps, CBR (Russian)
Аудио#2: DTS, 48.0 KHz, 6 ch, 1 510 Kbps, CBR (Spanish)
Субтитры: Russian, English







Общее
Уникальный идентификатор : 182789081046692670080029585960810355030 (0x8983E57F0630438EAD9FEFE066709956)
Полное имя : E:Пришелец из космоса.2011.BDRip.720p.mkv
Формат : Matroska
Версия формата : Version 2
Размер файла : 4,61 Гбайт
Продолжительность : 1 ч. 31 м.
Общий поток : 7202 Кбит/сек
Название фильма : Пришелец из космоса
Дата кодирования : UTC 2012-10-30 16:04:16
Программа кодирования : mkvmerge v5.8.0 ('No Sleep / Pillow') built on Sep 2 2012 15:37:04
Библиотека кодирования : libebml v1.2.3 + libmatroska v1.3.0

Видео
Идентификатор : 1
Формат : AVC
Формат/Информация : Advanced Video Codec
Профиль формата : High@L4.1
Параметр CABAC формата : Да
Параметр ReFrames формата : 12 кадров
Режим смешивания : Header stripping
Идентификатор кодека : V_MPEG4/ISO/AVC
Продолжительность : 1 ч. 31 м.
Битрейт : 5360 Кбит/сек
Ширина : 1280 пикселей
Высота : 544 пикселя
Соотношение сторон : 2,35:1
Режим частоты кадров : Постоянный
Частота кадров : 25,000 кадров/сек
Цветовое пространство : YUV
Субдискретизация насыщенности : 4:2:0
Битовая глубина : 8 бит
Тип развёртки : Прогрессивная
Бит/(Пиксели*Кадры) : 0.308
Размер потока : 3,31 Гбайт (72%)
Заголовок : MySiLu
Библиотека кодирования : x264 core 128 r2216+688+33 06dac27 tMod+MixAQ [8-bit@4:2:0 X86_64]
Настройки программы : cabac=1 / ref=12 / deblock=1:-3:-3 / analyse=0x3:0x113 / me=umh / subme=10 / psy=1 / fade_compensate=0.20 / psy_rd=1.10:0.15 / mixed_ref=1 / me_range=32 / chroma_me=1 / trellis=2 / 8x8dct=1 / cqm=0 / deadzone=21,11 / fast_pskip=0 / chroma_qp_offset=-3 / threads=12 / lookahead_threads=2 / sliced_threads=0 / nr=0 / decimate=1 / interlaced=0 / bluray_compat=0 / constrained_intra=0 / fgo=5 / bframes=6 / b_pyramid=2 / b_adapt=2 / b_bias=0 / direct=3 / weightb=1 / open_gop=0 / weightp=2 / keyint=375 / keyint_min=2 / scenecut=40 / intra_refresh=0 / rc_lookahead=240 / rc=2pass / mbtree=1 / bitrate=5360 / ratetol=1.0 / qcomp=0.60 / qpmin=0 / qpmax=69 / qpstep=4 / cplxblur=20.0 / qblur=0.5 / vbv_maxrate=40000 / vbv_bufsize=30000 / nal_hrd=none / ip_ratio=1.40 / aq=3 / aq-strength=1.10 / aq-sensitivity=10.00 / aq-ifactor=1.00 / aq-pfactor=1.00 / aq-bfactor=1.00 / aq2=0
Язык : Spanish
Default : Да
Forced : Нет

Аудио #1
Идентификатор : 2
Формат : AC-3
Формат/Информация : Audio Coding 3
Расширение режима : CM (complete main)
Параметр Endianness формата : Big
Режим смешивания : Header stripping
Идентификатор кодека : A_AC3
Продолжительность : 1 ч. 31 м.
Вид битрейта : Постоянный
Битрейт : 384 Кбит/сек
Каналы : 6 каналов
Расположение каналов : Front: L C R, Side: L R, LFE
Частота : 48,0 КГц
Битовая глубина : 16 бит
Метод сжатия : С потерями
Размер потока : 252 Мбайт (5%)
Заголовок : MVO [R5]
Язык : Russian
Default : Да
Forced : Нет

Аудио #2
Идентификатор : 3
Формат : DTS
Формат/Информация : Digital Theater Systems
Режим : 16
Параметр Endianness формата : Big
Режим смешивания : Header stripping
Идентификатор кодека : A_DTS
Продолжительность : 1 ч. 31 м.
Вид битрейта : Постоянный
Битрейт : 1509 Кбит/сек
Каналы : 6 каналов
Расположение каналов : Front: L C R, Side: L R, LFE
Частота : 48,0 КГц
Битовая глубина : 24 бит
Метод сжатия : С потерями
Размер потока : 990 Мбайт (21%)
Язык : Spanish
Default : Нет
Forced : Нет

Текст #1
Идентификатор : 4
Формат : UTF-8
Идентификатор кодека : S_TEXT/UTF8
Идентификатор кодека/Информация : UTF-8 Plain Text
Заголовок : [R5]
Язык : Russian
Default : Нет
Forced : Нет

Текст #2
Идентификатор : 5
Формат : UTF-8
Идентификатор кодека : S_TEXT/UTF8
Идентификатор кодека/Информация : UTF-8 Plain Text
Язык : English
Default : Нет
Forced : Нет


Пришелец из космоса скачать торрент


pb.wtf



Скачать Пришелец из космоса через торрент http://pic.kartinco.top/images/2/igohmelyzs.gif Скачать фильм Пришелец из космоса через торрент бесплантно в хорошем качестве Описание: Все знают, что делать, если в один прекрасный день все небо заполнят НЛО: бежать со всех ног! Однако что делать, если вторжение ... 7.7 10 9
Info! Золотая раздача, скачанное не засчитывается.
Торрент: Зарегистрирован [2013-06-10 12:21] · скачан: 83 раз
Статус: √ проверено
Размер: 4.61 GB
Как cкачать? Как скачать Пришелец из космоса через торрент | qTorrent

% Раздел Тема Автор DL S | L
Фильмы 2011 [ 1.46 GB ] Пришелец из космоса / Extraterrestre [2011 DVDRip] MVO -=Cherry=- Скачать
1 | 0

28-11-2019 20:33  

Отключить всю рекламу на сайте

10-06-2013 13:29 Пришелец из космоса Скачать торрент  

название фильма убойное :lol: :lol: :lol: :lol: :lol: лучше бы назвали "пришелец из под дивана" :lol: :lol: :lol:pb.wtf



10-06-2013 15:17 Пришелец из космоса Скачать торрент  



pb.wtf



10-06-2013 15:28 Пришелец из космоса Скачать торрент  

LAMA

Для какой цели Трейлер запилили?pb.wtf



10-06-2013 17:46 Пришелец из космоса Скачать торрент  

Пришелец из космоса...мозгов у них хватило только на такое тупейшее название
..бутерброд с хлебом блинpb.wtf



    Дорогой пользователь! Огромная просьба, поблагодарите релизера, оцените раздачу и оставьте свои комментарий, если Вы скачали Пришелец из космоса через торрент бесплатно! Внесите свою лепту в развитие PiratBit!
    Комментировать посты могут только пользователи прошедшие не сложную регистрацию
    Показать сообщения:    

    Пришелец из космоса через торрент
    Скачать бесплатно Пришелец из космоса
    Пришелец из космоса скачать торрент
    Пришелец из космоса смотреть онлайн
    Cкачать фильм Пришелец из космоса бесплатно
    Пришелец из космоса скачать торрент в хорошем качестве
    Пришелец из космоса смотреть онлайн бесплатно в хорошем качестве


    Вы не можете начинать темы
    Вы не можете отвечать на сообщения
    Вы не можете редактировать свои сообщения
    Вы не можете удалять свои сообщения
    Вы не можете голосовать в опросах
    Вы не можете прикреплять файлы к сообщениям
    Вы можете скачивать файлы