Ссылка на приватное зеркало всего за 1$. Внимание количество ограничено!!!

iTunes

iTunes

iTunes

1

iTunes

iTunes

iTunes

iTunes

iTunes

30
pack

$ от Little Big

ВАЖНО

!!Акция!!

Alien_RageХит недели

RePack

Resident Evil 21

ИГРА 18+

pack

RePack

jed

!!Акция!!

Alien_Rage

RePack

fifa19

RePack

Assassins Creed: Odyssey

RePack

NEED FOR SPEED™ PAYBACK

4 сезон

9 сезон

Бесстыжие 9 сезон

Все сериалы

все сериалы на PB.wtf

RePack

FAR CRY 5
  

Следующая пятница / Next Friday (Стив Карр) [1999 г., комедия, HDTVRip, Дубляж] pb.wtf

Следующая пятница через торрент pb.wtf

Размер: 4.93 GB | Добавлен: 7 лет 1 мес. назад | Торрент скачан:103 раза
Скачать  

10-06-2013 16:45 Следующая пятница Скачать торрент  

Следующая пятница / Next Friday «the suburbs make the hood look good» Год выпуска: 1999
Страна: США
Жанр: комедия
Продолжительность: 01:35:03
Перевод: Дубляж
Субтитры: Нет

Режиссер: Стив Карр
Продюссер: Айс Кьюб, Мэтт Альварес, Дуглас Кертис
Сценарий: Айс Кьюб, Ди-Джей Пух

Бюджет: $11 000 000
Премьера в мире: 11 января 2000


IMDB 5.60 (16 129)



В ролях: Айс Кьюб, Майк Эппс, Джастин Пирс, Джон Уизерспун, Дон «Д.С.» Керри, Джейкоб Варгас, Лобо Себастьян, Роландо Молина, Лиза Родригез, Том ’Тайни’ Листер мл.

Описание: Крейг — настоящий герой улиц. Он вырос в гетто и ему не страшны никакие испытания. Он одинаково крут и в тюрьме, где к нему неровно дышит гигантского размера сокамерник, и в шикарной обстановке роскошного особняка своего безработного дяди, который выиграл в лотерею миллион долларов и от радости потерял чувство реальности.Сногсшибательная латино-американская красотка готова на все ради его внимания, а ее вооруженные до зубов братья — бандиты бьются в истерике от злости. В общем скучать ему не приходится, главное вовремя покурить травки и не воспринимать все слишком серьезно.

Качество: HDTVRip
Формат: MKV
Видео кодек: H.264
Аудио кодек: AC3
Видео: 1280x688 (1.860), 23.976 fps, 6 209 Kbps (0.294 bit/pixel)
Аудио #1: AC-3, 48.0 KHz, 2 ch, 192 Kbps, CBR (Russian) Профессиональный (полное дублирование)
Аудио #2: AC-3, 48.0 KHz, 2 ch, 192 Kbps, CBR (Russian) Диктор CDV
Аудио #3: AC-3, 48.0 KHz, 6 ch, 448 Kbps, CBR (Russian) Сонькин
Аудио #4: AC-3, 48.0 KHz, 6 ch, 384 Kbps, CBR (English)








Общее
Уникальный идентификатор : 171327332763234195482908636271052550880 (0x80E471AD00D8782A85EC17D7364772E0)
Полное имя : E:Следующая пятница.2000.720p.HDTVRip.x264.mkv
Формат : Matroska
Версия формата : Version 2
Размер файла : 4,93 Гбайт
Продолжительность : 1 ч. 35 м.
Общий поток : 7422 Кбит/сек
Дата кодирования : UTC 2011-05-17 08:54:54
Программа кодирования : mkvmerge v3.0.0 ('Hang up your Hang-Ups') built on Jan 6 2010 22:49:38
Библиотека кодирования : libebml v0.7.9 + libmatroska v0.8.1

Видео
Идентификатор : 1
Формат : AVC
Формат/Информация : Advanced Video Codec
Профиль формата : High@L4.1
Параметр CABAC формата : Да
Параметр ReFrames формата : 5 кадров
Идентификатор кодека : V_MPEG4/ISO/AVC
Продолжительность : 1 ч. 35 м.
Битрейт : 6209 Кбит/сек
Ширина : 1280 пикселей
Высота : 688 пикселей
Соотношение сторон : 1,85:1
Режим частоты кадров : Постоянный
Частота кадров : 23,976 кадра/сек
Цветовое пространство : YUV
Субдискретизация насыщенности : 4:2:0
Битовая глубина : 8 бит
Тип развёртки : Прогрессивная
Бит/(Пиксели*Кадры) : 0.294
Размер потока : 4,02 Гбайт (82%)
Заголовок : RG Uralmix
Библиотека кодирования : x264 core 76 r1271M 496d79d
Настройки программы : cabac=1 / ref=5 / deblock=1:-3:-3 / analyse=0x3:0x133 / me=umh / subme=10 / psy=1 / psy_rd=1.0:0.0 / mixed_ref=1 / me_range=32 / chroma_me=1 / trellis=2 / 8x8dct=1 / cqm=0 / deadzone=21,11 / chroma_qp_offset=-2 / threads=3 / nr=0 / decimate=0 / mbaff=0 / bframes=2 / b_pyramid=1 / b_adapt=2 / b_bias=0 / direct=3 / wpredb=1 / keyint=250 / keyint_min=25 / scenecut=40 / rc=2pass / mbtree=0 / bitrate=6209 / ratetol=1.0 / qcomp=0.60 / qpmin=10 / qpmax=51 / qpstep=4 / cplxblur=20.0 / qblur=0.5 / ip_ratio=1.40 / pb_ratio=1.30 / aq=1:1.00
Default : Нет
Forced : Нет

Аудио #1
Идентификатор : 2
Формат : AC-3
Формат/Информация : Audio Coding 3
Расширение режима : CM (complete main)
Параметр Endianness формата : Big
Идентификатор кодека : A_AC3
Продолжительность : 1 ч. 35 м.
Вид битрейта : Постоянный
Битрейт : 192 Кбит/сек
Каналы : 2 канала
Расположение каналов : Front: L R
Частота : 48,0 КГц
Битовая глубина : 16 бит
Метод сжатия : С потерями
Размер потока : 131 Мбайт (3%)
Заголовок : Dub
Язык : Russian
Default : Нет
Forced : Нет

Аудио #2
Идентификатор : 3
Формат : AC-3
Формат/Информация : Audio Coding 3
Расширение режима : CM (complete main)
Параметр Endianness формата : Big
Идентификатор кодека : A_AC3
Продолжительность : 1 ч. 35 м.
Вид битрейта : Постоянный
Битрейт : 192 Кбит/сек
Каналы : 2 канала
Расположение каналов : Front: L R
Частота : 48,0 КГц
Битовая глубина : 16 бит
Метод сжатия : С потерями
Размер потока : 131 Мбайт (3%)
Заголовок : CDV
Язык : Russian
Default : Нет
Forced : Нет

Аудио #3
Идентификатор : 4
Формат : AC-3
Формат/Информация : Audio Coding 3
Расширение режима : CM (complete main)
Параметр Endianness формата : Big
Идентификатор кодека : A_AC3
Продолжительность : 1 ч. 35 м.
Вид битрейта : Постоянный
Битрейт : 448 Кбит/сек
Каналы : 6 каналов
Расположение каналов : Front: L C R, Side: L R, LFE
Частота : 48,0 КГц
Битовая глубина : 16 бит
Метод сжатия : С потерями
Размер потока : 305 Мбайт (6%)
Заголовок : Sonkin
Язык : Russian
Default : Нет
Forced : Нет

Аудио #4
Идентификатор : 5
Формат : AC-3
Формат/Информация : Audio Coding 3
Расширение режима : CM (complete main)
Параметр Endianness формата : Big
Идентификатор кодека : A_AC3
Продолжительность : 1 ч. 35 м.
Вид битрейта : Постоянный
Битрейт : 384 Кбит/сек
Каналы : 6 каналов
Расположение каналов : Front: L C R, Side: L R, LFE
Частота : 48,0 КГц
Битовая глубина : 16 бит
Метод сжатия : С потерями
Задержка видео : 32 мс.
Размер потока : 261 Мбайт (5%)
Язык : English
Default : Нет
Forced : Нет


Следующая пятница скачать торрент





pb.wtf



Скачать Следующая пятница через торрент http://pic.kartinco.top/images/2/hnan1qns59.gif Скачать фильм Следующая пятница через торрент бесплантно в хорошем качестве Описание: Крейг — настоящий герой улиц. Он вырос в гетто и ему не страшны никакие испытания. Он одинаково крут и в тюрьме, где к нему ... 9.8 10 17
Info! Золотая раздача, скачанное не засчитывается.
Торрент: Зарегистрирован [2013-06-10 16:45] · скачан: 103 раз
Статус: √ проверено
Размер: 4.93 GB
Как cкачать? Как скачать Следующая пятница через торрент | qTorrent

% Раздел Тема Автор DL S | L
Порно фильмы HD [ 4.46 GB ] Официальная Пародия "В Следующую Пятницу." / Official Next Friday Parody [2012 Feature Parody Interractial. WEB-DL 720p] Pir@tya2010 Скачать
1 | 0
Порно фильмы с сюжетом [ 698 MB ] Ночью В Следующую Пятницу / Next Friday Night [2012 Feature DVDRip] DrIron Скачать
1 | 0

28-11-2019 20:33  

Отключить всю рекламу на сайте

    Дорогой пользователь! Огромная просьба, поблагодарите релизера, оцените раздачу и оставьте свои комментарий, если Вы скачали Следующая пятница через торрент бесплатно! Внесите свою лепту в развитие PiratBit!
    Комментировать посты могут только пользователи прошедшие не сложную регистрацию
    Показать сообщения:    

    Следующая пятница через торрент
    Скачать бесплатно Следующая пятница
    Следующая пятница скачать торрент
    Следующая пятница смотреть онлайн
    Cкачать фильм Следующая пятница бесплатно
    Следующая пятница скачать торрент в хорошем качестве
    Следующая пятница смотреть онлайн бесплатно в хорошем качестве


    Вы не можете начинать темы
    Вы не можете отвечать на сообщения
    Вы не можете редактировать свои сообщения
    Вы не можете удалять свои сообщения
    Вы не можете голосовать в опросах
    Вы не можете прикреплять файлы к сообщениям
    Вы можете скачивать файлы