Всегда рабочее зеркало без VPN и Proxy просто перед .vidak.icu напиши любое слово или цифру, Пример http://bi4r.vidak.icu

MVO

2 сезон

1 сезон

1

1 сезон

iTunes

2 сезон

13

1 сезон

Deluxe

pack

Рекомендуем

Пиратка

30

ВАЖНО

RePack

MK11

RePack

jed

RePack

fifa19

RePack

RDR2

RePack

NEED FOR SPEED™ PAYBACK

Кинопоиск HD

6 сезон

 Острые козырьки 6 сезон

Все сериалы

все сериалы на PB.wtf

RePack

FAR CRY 5

Anonymous, нам критически не хватает 5601 руб. на оплату серверов и переферии за Апрель, помоги нам пожалуйста, вся надежда только на тебя. В благодарность мы отключим тебе всю рекламу на сайте!

×
  
Magnet ссылка

Невероятный Бёрт Уандерстоун / The Incredible Burt Wonderstone (Дон Скардино) [2013 г., комедия, BDRip 720p, MVO, [BaiBako] pb.wtf

Невероятный Бёрт Уандерстоун через торрент pb.wtf

Размер: 5.41 GB | Добавлен: 8 лет 11 мес. назад | Торрент скачан:265 раз
Смотреть онлайн Невероятный Бёрт Уандерстоун | Скачать    Ребята, помогите собрать деньги на оплату серверов!!!

10-06-2013 19:31 Невероятный Бёрт Уандерстоун Скачать торрент  



Невероятный Бёрт Уандерстоун / The Incredible Burt Wonderstone «Abracatastic!» Год выпуска: 2013
Страна: США
Жанр: комедия
Продолжительность: 01:40:46
Перевод: Профессиональный многоголосый, [BaiBako]
Субтитры: Нет

Режиссер: Дон Скардино
Продюссер: Крис Бендер, Стив Карелл, Тайлер Митчелл
Сценарий: Джонатан М. Голдштейн, Джон Фрэнсис Дейли, Чад Калтген

Бюджет: $30 000 000
Премьера в мире: 8 марта 2013



IMDB 5.90 (9 293)



В ролях: Стив Карелл, Стив Бушеми, Оливия Уайлд, Джим Керри, Джеймс Гандольфини, Алан Аркин, Джей Мор, Михаэль Хербиг, Мэйсон Кук, Люк Ванек

Описание: Фильм рассказывает историю двух фокусников-конкурентов в Лас-Вегасе. Берт Уандерстоун однажды во время исполнения номера лишается напарника, и все оставшееся время пытается вернуть себе мотивацию и вернуться к любимому занятию.

Качество: BDRip 720p
Формат: MKV
Видео кодек: H.264
Аудио кодек: DTS
Видео: 1280x534 (2.35:1), 23.976 fps, 4 705 Kbps (0.287 bit/pixel)
Аудио #1: DTS, 48.0 KHz, 6 ch, 1 510 Kbps, CBR (Russian)
Аудио #2: DTS, 48.0 KHz, 6 ch, 1 510 Kbps, CBR (English)
Субтитры: English, English, English








Общее
Уникальный идентификатор : 190551935268720335203811804270586201624 (0x8F5AF7C25CF8F70C82A1F120571B8618)
Полное имя : F:Невероятный Бёрт Уандерстоун.2013.BDRip.720.mkv
Формат : Matroska
Версия формата : Version 2
Размер файла : 5,41 Гбайт
Продолжительность : 1 ч. 40 м.
Общий поток : 7723 Кбит/сек
Название фильма : The.Incredible.Burt.Wonderstone
Дата кодирования : UTC 2013-06-10 08:28:01
Программа кодирования : mkvmerge v2.9.9 ('Tutu') built on Nov 25 2009 21:13:32
Библиотека кодирования : libebml v0.7.9 + libmatroska v0.8.1

Видео
Идентификатор : 1
Формат : AVC
Формат/Информация : Advanced Video Codec
Профиль формата : High@L4.1
Параметр CABAC формата : Да
Параметр ReFrames формата : 10 кадров
Идентификатор кодека : V_MPEG4/ISO/AVC
Продолжительность : 1 ч. 40 м.
Битрейт : 4705 Кбит/сек
Ширина : 1280 пикселей
Высота : 534 пикселя
Соотношение сторон : 2,40:1
Режим частоты кадров : Постоянный
Частота кадров : 23,976 кадра/сек
Цветовое пространство : YUV
Субдискретизация насыщенности : 4:2:0
Битовая глубина : 8 бит
Тип развёртки : Прогрессивная
Бит/(Пиксели*Кадры) : 0.287
Размер потока : 3,19 Гбайт (59%)
Заголовок : -=NNM-CLUB.RU=-
Библиотека кодирования : x264 core 125 r2208 d9d2288
Настройки программы : cabac=1 / ref=10 / deblock=1:-3:-3 / analyse=0x3:0x113 / me=umh / subme=10 / psy=1 / psy_rd=1.00:0.05 / mixed_ref=1 / me_range=32 / chroma_me=1 / trellis=2 / 8x8dct=1 / cqm=0 / deadzone=21,11 / fast_pskip=0 / chroma_qp_offset=-2 / threads=8 / lookahead_threads=1 / sliced_threads=0 / nr=0 / decimate=1 / interlaced=0 / bluray_compat=0 / constrained_intra=0 / bframes=4 / b_pyramid=2 / b_adapt=2 / b_bias=0 / direct=3 / weightb=1 / open_gop=0 / weightp=2 / keyint=250 / keyint_min=23 / scenecut=40 / intra_refresh=0 / rc=2pass / mbtree=0 / bitrate=4705 / ratetol=1.0 / qcomp=0.70 / qpmin=0 / qpmax=69 / qpstep=4 / cplxblur=20.0 / qblur=0.5 / ip_ratio=1.40 / pb_ratio=1.30 / aq=2:1.00
Язык : English
Default : Нет
Forced : Нет

Аудио #1
Идентификатор : 2
Формат : DTS
Формат/Информация : Digital Theater Systems
Режим : 16
Параметр Endianness формата : Big
Идентификатор кодека : A_DTS
Продолжительность : 1 ч. 40 м.
Вид битрейта : Постоянный
Битрейт : 1509 Кбит/сек
Каналы : 6 каналов
Расположение каналов : Front: L C R, Side: L R, LFE
Частота : 48,0 КГц
Битовая глубина : 24 бит
Метод сжатия : С потерями
Размер потока : 1,06 Гбайт (20%)
Заголовок : DTS.1510.Kbps (6ch) Russian
Язык : Russian
Default : Да
Forced : Нет

Аудио #2
Идентификатор : 3
Формат : DTS
Формат/Информация : Digital Theater Systems
Режим : 16
Параметр Endianness формата : Big
Идентификатор кодека : A_DTS
Продолжительность : 1 ч. 40 м.
Вид битрейта : Постоянный
Битрейт : 1509 Кбит/сек
Каналы : 6 каналов
Расположение каналов : Front: L C R, Side: L R, LFE
Частота : 48,0 КГц
Битовая глубина : 24 бит
Метод сжатия : С потерями
Задержка видео : 11 мс.
Размер потока : 1,06 Гбайт (20%)
Заголовок : DTS.1510.Kbps (6ch) English
Язык : English
Default : Нет
Forced : Нет

Текст #1
Идентификатор : 4
Формат : UTF-8
Идентификатор кодека : S_TEXT/UTF8
Идентификатор кодека/Информация : UTF-8 Plain Text
Заголовок : English (Full)
Язык : English
Default : Нет
Forced : Нет

Текст #2
Идентификатор : 5
Формат : UTF-8
Идентификатор кодека : S_TEXT/UTF8
Идентификатор кодека/Информация : UTF-8 Plain Text
Заголовок : English (SDH)
Язык : English
Default : Нет
Forced : Нет

Текст #3
Идентификатор : 6
Формат : UTF-8
Идентификатор кодека : S_TEXT/UTF8
Идентификатор кодека/Информация : UTF-8 Plain Text
Заголовок : English (SDH-Colored)
Язык : English
Default : Да
Forced : Нет

Меню
00:00:00.000 : en:00:00:00.000
00:08:08.405 : en:00:08:08.405
00:19:56.445 : en:00:19:56.445
00:30:13.145 : en:00:30:13.145
00:39:53.308 : en:00:39:53.308
00:49:46.150 : en:00:49:46.150
01:00:48.228 : en:01:00:48.228
01:10:29.142 : en:01:10:29.142
01:19:53.163 : en:01:19:53.163
01:30:04.399 : en:01:30:04.399


Невероятный Бёрт Уандерстоун скачать торрент




pb.wtf



Скачать Невероятный Бёрт Уандерстоун через торрент https://pic1.kartinco.top/images/21/eeol33b25n.png Скачать, смотреть онлайн Невероятный Бёрт Уандерстоун бесплантно в хорошем качестве Описание: Фильм рассказывает историю двух фокусников-конкурентов в Лас-Вегасе. Берт Уандерстоун однажды во время исполнения номера лишается ... 9.7 10 31
Info! Золотая раздача, скачанное не засчитывается.
Торрент: Зарегистрирован [2013-06-10 19:31] · скачан: 265 раз
Статус: √ проверено
Размер: 5.41 GB
Как cкачать? Как скачать Невероятный Бёрт Уандерстоун через торрент | UTorrent

% Раздел Тема Автор DL S | L
Фильмы 2013 [DVDrip, WEB-DLRip, HDrip] [ 1.36 GB ] Невероятный Бёрт Уандерстоун / The Incredible Burt Wonderstone [ 2013 HDRip ] MVO [лицензия ] Ворон Скачать
1 | 0
Фильмы [HD 720p, 1080p] (Хороший звук DUB, MVO) [ 4.54 GB ] Невероятный Бёрт Уандерстоун / The Incredible Burt Wonderstone [2013 BDRip 720p] 2 x MVO 2 x AVO msltel Скачать
1 | 0
Фильмы [HD 720p, 1080p] (Хороший звук DUB, MVO) [ 11.17 GB ] Невероятный Бёрт Уандерстоун / The Incredible Burt Wonderstone [2013 BDRip 1080p] 2 x MVO 2 x AVO msltel Скачать
1 | 0
Фильмы 2013 [DVDrip, WEB-DLRip, HDrip] [ 3.14 GB ] Невероятный Бёрт Уандерстоун / The Incredible Burt Wonderstone [2013 BDRip-AVC] 2 x MVO 2 x AVO msltel Скачать
1 | 0
Фильмы с авторской озвучкой [ 2.18 GB ] Невероятный Бёрт Уандерстоун / The Incredible Burt Wonderstone [2013 HDRip] 2x[AVO] killermax2013 Скачать
1 | 0
Фильмы (DVD фильмы) [ 4.88 GB ] Невероятный Бёрт Уандерстоун / The Incredible Burt Wonderstone [2013 DVD9] R5 «CP Дистрибуция» voovaz Скачать
1 | 0
Фильмы 2013 [DVDrip, WEB-DLRip, HDrip] [ 2.05 GB ] Невероятный Бёрт Уандерстоун / The Incredible Burt Wonderstone [ 2013 HDRip ] MVO [лицензия ] Ворон Скачать
1 | 0


Последний раз редактировалось: Ke$h@ (2013-06-11 06:42), всего редактировалось 1 раз

28-11-2019 20:33  

Отключить всю рекламу на сайте

10-06-2013 22:09 Невероятный Бёрт Уандерстоун Скачать торрент  

Ke$h@ писал(а):

Перевод: Профессиональный многоголосый, Лицензия

Перевод: Профессиональное (многоголосое) [BaiBako]
Правим.pb.wtf



28-02-2014 11:53 Невероятный Бёрт Уандерстоун Скачать торрент  

Встаньте на раздаче пожалуйста)pb.wtf



    Дорогой пользователь! Огромная просьба, поблагодарите релизера, оцените раздачу и оставьте свои комментарий, если Вы скачали Невероятный Бёрт Уандерстоун через торрент бесплатно!
    Комментировать посты могут только пользователи прошедшие не сложную регистрацию
    Показать сообщения:    

    Невероятный Бёрт Уандерстоун через торрент
    Скачать бесплатно Невероятный Бёрт Уандерстоун
    Невероятный Бёрт Уандерстоун скачать торрент
    Невероятный Бёрт Уандерстоун смотреть онлайн
    Cкачать фильм Невероятный Бёрт Уандерстоун бесплатно
    Невероятный Бёрт Уандерстоун скачать торрент в хорошем качестве
    Невероятный Бёрт Уандерстоун смотреть онлайн бесплатно в хорошем качестве


    Вы не можете начинать темы
    Вы не можете отвечать на сообщения
    Вы не можете редактировать свои сообщения
    Вы не можете удалять свои сообщения
    Вы не можете голосовать в опросах
    Вы не можете прикреплять файлы к сообщениям
    Вы можете скачивать файлы