Ссылка на приватное зеркало нашего сайта всего за 1$. Внимание количество ограничено!!!

2 сезон

iTunes

1 сезон

1

iTunes

iTunes

iTunes

1 сезон

RePack

30

ИГРА 18+

pack

ВАЖНО

!!Акция!!

Alien_RageХит недели

RePack

MK11
pack

Забери бонус

RePack

jed

!!Акция!!

Alien_Rage

RePack

fifa19

RePack

Assassins Creed: Odyssey

RePack

NEED FOR SPEED™ PAYBACK

4 сезон

9 сезон

Бесстыжие 9 сезон

Все сериалы

все сериалы на PB.wtf

RePack

FAR CRY 5
  

Морщинки / Arrugas (Игнасио Феррерас) [2011 г., мультфильм, драмаслова, DVDRip, MVO, Закадровый] pb.wtf

Морщинки через торрент pb.wtf

Размер: 1.37 GB | Добавлен: 7 лет 4 мес. назад | Торрент скачан:83 раза
Скачать  

11-06-2013 11:18 Морщинки Скачать торрент  

Морщинки / Arrugas
Год выпуска: 2011
Страна: Испания
Жанр: мультфильм, драмаслова,
Продолжительность: 89 мин. / 01:29
Перевод: Профессиональный многоголосый, Закадровый

Режиссер: Игнасио Феррерас
Продюссер: Энрике Агирресабала, Мануэль Р. Кристобаль, Ориол Иверн
Сценарий: Розанна Чеккини, Анхель Де Ла Круз, Игнасио Феррерас

Бюджет: €2 000 000

Персонажей озвучили: Тачо Гонсалес, Альваро Гевара, Мэйбл Ривера,

Описание: Фильм повествует об истории дружбы между двумя пожилыми людьми — Эмилио и Мигелем, которые являются соседями по палате в доме престарелых. Эмилио поставлен диагноз ранней стадии болезни Альцгеймера. Мигель и его приятели помогают ему избежать страшной участи — не оказаться на зловещем верхнем этаже дома престарелых, также известном как этаж безнадежных случаев. Реализация их дикого плана придает сил и наполняет юмором их ежедневное скучное времяпровождение. И хотя для некоторых из них жизни подходят к концу — это всего лишь начало чего-то нового...

IMDB 7.30 (557)


Качество: DVDRip
Формат: AVI
Видео кодек: XviD
Аудио кодек: AC3
Видео: 720x400 (1.80:1), 25 fps, XviD build 50 ~1996 kbps avg, 0.277 bit/pixel -русский
Аудио: 44.1 kHz, AC3 Dolby Digital, 2/0 (L,R) ch, ~192 kbps










General
Complete name : Arrugas.2011.P.DVDRip.avi
Format : AVI
Format/Info : Audio Video Interleave
File size : 1.37 GiB
Duration : 1h 25mn
Overall bit rate : 2 287 Kbps
Writing application : VirtualDubMod 1.5.10.2 (build 2540/release)
Writing library : VirtualDubMod build 2540/release

Video
ID : 0
Format : MPEG-4 Visual
Format profile : Advanced Simple@L5
Format settings, BVOP : 2
Format settings, QPel : No
Format settings, GMC : No warppoints
Format settings, Matrix : Default (MPEG)
Codec ID : XVID
Codec ID/Hint : XviD
Duration : 1h 25mn
Bit rate : 2 086 Kbps
Width : 720 pixels
Height : 400 pixels
Display aspect ratio : 16:9
Frame rate : 25.000 fps
Color space : YUV
Chroma subsampling : 4:2:0
Bit depth : 8 bits
Scan type : Progressive
Compression mode : Lossy
Bits/(Pixel*Frame) : 0.290
Stream size : 1.25 GiB (91%)
Writing library : XviD 1.2.1 (UTC 2008-12-04)

Audio
ID : 1
Format : AC-3
Format/Info : Audio Coding 3
Mode extension : CM (complete main)
Codec ID : 2000
Duration : 1h 25mn
Bit rate mode : Constant
Bit rate : 192 Kbps
Channel(s) : 2 channels
Channel positions : Front: L R
Sampling rate : 44.1 KHz
Bit depth : 16 bits
Compression mode : Lossy
Stream size : 117 MiB (8%)
Alignment : Split accross interleaves
Interleave, duration : 40 ms (1.00 video frame)
Interleave, preload duration : 500 ms


Морщинки скачать торрент


pb.wtf



Скачать Морщинки через торрент http://pic.kartinco.top/images/2/b9xqet2bd3.jpg Скачать фильм Морщинки через торрент бесплантно в хорошем качестве Описание: Фильм повествует об истории дружбы между двумя пожилыми людьми — Эмилио и Мигелем, которые являются соседями по палате в доме ... 7.5 10 4
Info! Золотая раздача, скачанное не засчитывается.
Торрент: Зарегистрирован [2013-06-11 11:18] · скачан: 83 раз
Статус: √ проверено
Размер: 1.37 GB
Как cкачать? Как скачать Морщинки через торрент | qTorrent



Последний раз редактировалось: Schumakher (2013-06-12 04:58), всего редактировалось 1 раз

28-11-2019 20:33  

Отключить всю рекламу на сайте

12-06-2013 03:06 Морщинки Скачать торрент  

Бюджет €2 000 000pb.wtf



    Дорогой пользователь! Огромная просьба, поблагодарите релизера, оцените раздачу и оставьте свои комментарий, если Вы скачали Морщинки через торрент бесплатно! Внесите свою лепту в развитие PiratBit!
    Комментировать посты могут только пользователи прошедшие не сложную регистрацию
    Показать сообщения:    

    Морщинки через торрент
    Скачать бесплатно Морщинки
    Морщинки скачать торрент
    Морщинки смотреть онлайн
    Cкачать фильм Морщинки бесплатно
    Морщинки скачать торрент в хорошем качестве
    Морщинки смотреть онлайн бесплатно в хорошем качестве


    Вы не можете начинать темы
    Вы не можете отвечать на сообщения
    Вы не можете редактировать свои сообщения
    Вы не можете удалять свои сообщения
    Вы не можете голосовать в опросах
    Вы не можете прикреплять файлы к сообщениям
    Вы можете скачивать файлы