2 сезон

iTunes

MVO

1

2 сезон

iTunes

iTunes

1 сезон

RePack

30

Ultimate

ВАЖНО

ИГРА 18+

pack

RePack

MK11
pack

Легкие деньги

RePack

jed

RePack

fifa19

RePack

RDR2

RePack

NEED FOR SPEED™ PAYBACK

4 сезон

9 сезон

Бесстыжие 9 сезон

Все сериалы

все сериалы на PB.wtf

RePack

FAR CRY 5

Anonymous, добрый день, мы не успеваем собрать деньги на оплату серверов за декабрь и январь, помогите нам пожалуйста в это трудное время. В качестве благодарности мы отключим Вам всю рекламу на сайте (укажите свой ник в строку Ваше имя)!

×
  
Magnet ссылка

Тачка №19 / Vehicle 19 (Мукунда Майкл Дьюил) [2013 г., боевик, триллер, криминал, драма, BDRip-AVC, Дубляж, лицензия] pb.wtf

Тачка №19 через торрент pb.wtf

Размер: 2.19 GB | Добавлен: 7 лет 7 мес. назад | Торрент скачан:688 раз
Скачать  

12-06-2013 00:34 Тачка №19 Скачать торрент  

Тачка №19 / Vehicle 19
Год выпуска: 2013
Страна: США
Жанр: боевик, триллер, криминал, драма
Продолжительность: 85 мин. / 01:25:10
Перевод: Дубляж, Лицензия
Субтитры: Английские, русские

Режиссер: Мукунда Майкл Дьюил
Продюссер: Райан Хайдариан, Питер Сафран, Уэйн Марк Годфри
Сценарий: Мукунда Майкл Дьюил

Премьера в мире: 7 февраля 2013




В ролях: Пол Уокер, Наима МакЛин, Ги Де Виллерс, Лэйла Хайдариан, Тшепо Масеко, Андриан Мазив, Велиль Нзуза, Мангалисо Нгема, Эрнест Кубайи, Элиз Ван Никерк, Олег Фёдоров, Виктория Слуцкая, Владимир Маслаков, Марина Гладкая, Михаил Хрусталев


Описание: Что делать, если из багажника арендованной в незнакомом городе тачки в салон вываливается связанная девушка? Сдать бедолагу в ближайший полицейский участок? Спасибо, Кэп, но не всё так просто! Эта девушка — важный свидетель в большом заговоре, и её уже приговорили к смерти... На хвосте висят все копы города, выход один — вдавить педаль газа в пол и считать дырки от пуль и разбитые полицейские машины! Гонки на выживание начинаются!


Качество: BDRip-AVC
Формат: MKV
Видео кодек: H.264
Аудио кодек: AC3
Видео: H.264, 1056x440 (2,40:1), 23.976 fps, 2780 Кbps, 0.250 bit/pixel
Аудио#1: 48 kHz, AC3 Dolby Digital, 3/2 (L,C,R,l,r) + LFE ch, 448.00 kbps | RUS
Аудио#2
: 48 kHz, AC3 Dolby Digital, 3/2 (L,C,R,l,r) + LFE ch, 448.00 kbps | ENG









D:Tachka.19.2013.D.BDRip.
General
Unique ID : 196259827573029552361141868850644206044 (0x93A64493CDF22D09B8161150295B41DC)
Complete name : D:Tachka.19.2013.D.BDRip
Format : Matroska
Format version : Version 4 / Version 2
File size : 2.19 GiB
Duration : 1h 25mn
Overall bit rate : 3 673 Kbps
Movie name : Макс1
Encoded date : UTC 2013-06-11 15:43:16
Writing application : mkvmerge v5.9.0 ('On The Loose') built on Dec 15 2012 16:39:58
Writing library : libebml v1.3.0 + libmatroska v1.4.0
Video #1
ID : 1
Format : AVC
Format/Info : Advanced Video Codec
Format profile : High@L4.1
Format settings, CABAC : Yes
Format settings, ReFrames : 10 frames
Codec ID : V_MPEG4/ISO/AVC
Duration : 1h 25mn
Bit rate : 2 780 Kbps
Width : 1 056 pixels
Height : 440 pixels
Display aspect ratio : 2.40:1
Frame rate : 23.976 fps
Color space : YUV
Chroma subsampling : 4:2:0
Bit depth : 8 bits
Scan type : Progressive
Bits/(Pixel*Frame) : 0.250
Stream size : 1.61 GiB (74%)
Title : Vehicle 19
Writing library : x264 core 125 r2208 d9d2288
Encoding settings : cabac=1 / ref=10 / deblock=1:-2:-1 / analyse=0x3:0x133 / me=umh / subme=11 / psy=1 / psy_rd=1.13:0.05 / mixed_ref=1 / me_range=48 / chroma_me=1 / trellis=2 / 8x8dct=1 / cqm=0 / deadzone=21,11 / fast_pskip=0 / chroma_qp_offset=-3 / threads=9 / lookahead_threads=1 / sliced_threads=0 / nr=0 / decimate=1 / interlaced=0 / bluray_compat=0 / constrained_intra=0 / bframes=11 / b_pyramid=2 / b_adapt=2 / b_bias=0 / direct=3 / weightb=1 / open_gop=0 / weightp=2 / keyint=240 / keyint_min=23 / scenecut=40 / intra_refresh=0 / rc_lookahead=150 / rc=2pass / mbtree=1 / bitrate=2780 / ratetol=1.0 / qcomp=0.75 / qpmin=0 / qpmax=69 / qpstep=4 / cplxblur=20.0 / qblur=0.5 / vbv_maxrate=20000 / vbv_bufsize=20000 / nal_hrd=none / ip_ratio=1.35 / aq=1:0.70
Language : English
Default : Yes
Forced : No
Audio #2
ID : 2
Format : AC-3
Format/Info : Audio Coding 3
Mode extension : CM (complete main)
Format settings, Endianness : Big
Codec ID : A_AC3
Duration : 1h 25mn
Bit rate mode : Constant
Bit rate : 448 Kbps
Channel(s) : 6 channels
Channel positions : Front: L C R, Side: L R, LFE
Sampling rate : 48.0 KHz
Bit depth : 16 bits
Compression mode : Lossy
Stream size : 273 MiB (12%)
Title : Dub | DD 5.1 @ 448 kbps
Language : Russian
Default : Yes
Forced : Yes
Audio #3
ID : 3
Format : AC-3
Format/Info : Audio Coding 3
Mode extension : CM (complete main)
Format settings, Endianness : Big
Codec ID : A_AC3
Duration : 1h 25mn
Bit rate mode : Constant
Bit rate : 448 Kbps
Channel(s) : 6 channels
Channel positions : Front: L C R, Side: L R, LFE
Sampling rate : 48.0 KHz
Bit depth : 16 bits
Compression mode : Lossy
Stream size : 273 MiB (12%)
Title : Original | DD 5.1 @ 448 kbps
Language : English
Default : No
Forced : No
Text #4
ID : 4
Format : UTF-8
Codec ID : S_TEXT/UTF8
Codec ID/Info : UTF-8 Plain Text
Title : voronine
Language : Russian
Default : No
Forced : No
Text #5
ID : 5
Format : UTF-8
Codec ID : S_TEXT/UTF8
Codec ID/Info : UTF-8 Plain Text
Title : Full
Language : English
Default : No
Forced : No


Тачка №19 скачать торрент


pb.wtf



Скачать Тачка №19 через торрент http://pic.kartinco.top/images/2/hltiqzuj9a.png Скачать фильм Тачка №19 через торрент бесплантно в хорошем качестве Описание: Что делать, если из багажника арендованной в незнакомом городе тачки в салон вываливается связанная девушка? Сдать бедолагу в ... 8.6 10 25
Info! Золотая раздача, скачанное не засчитывается.
Торрент: Зарегистрирован [2013-06-12 00:34] · скачан: 688 раз
Статус: √ проверено
Размер: 2.19 GB
Как cкачать? Как скачать Тачка №19 через торрент | UTorrent

% Раздел Тема Автор DL S | L
Фильмы 2013 [DVDrip, WEB-DLRip, HDrip] [ 1.37 GB ] Тачка №19 / Vehicle 19 [2013 HDRip лицензия] Ворон Скачать
1 | 0
Фильмы [HD 720p, 1080p] (Хороший звук DUB, MVO) [ 6.54 GB ] Тачка №19 / Vehicle 19 [2013 BDRip 720p] Dub + Sub Rus Eng + Original Eng Mr. Freeman Скачать
1 | 0
Фильмы [HD 720p, 1080p] (Хороший звук DUB, MVO) [ 9.97 GB ] Тачка №19 / Vehicle 19 [2013 BDRip 1080p лицензия] kellixon Скачать
1 | 0
Фильмы (DVD фильмы) [ 4.86 GB ] Тачка №19 / Vehicle 19 [2013 DVD9] R5 voovaz Скачать
1 | 0

28-11-2019 20:33  

Отключить всю рекламу на сайте

12-06-2013 11:36 Тачка №19 Скачать торрент  

Честно говоря,нудный фильм..pb.wtf



12-06-2013 14:54 Тачка №19 Скачать торрент  

муть редкаяpb.wtf



    Дорогой пользователь! Огромная просьба, поблагодарите релизера, оцените раздачу и оставьте свои комментарий, если Вы скачали Тачка №19 через торрент бесплатно! Внесите свою лепту в развитие PiratBit!
    Комментировать посты могут только пользователи прошедшие не сложную регистрацию
    Показать сообщения:    

    Тачка №19 через торрент
    Скачать бесплатно Тачка №19
    Тачка №19 скачать торрент
    Тачка №19 смотреть онлайн
    Cкачать фильм Тачка №19 бесплатно
    Тачка №19 скачать торрент в хорошем качестве
    Тачка №19 смотреть онлайн бесплатно в хорошем качестве


    Вы не можете начинать темы
    Вы не можете отвечать на сообщения
    Вы не можете редактировать свои сообщения
    Вы не можете удалять свои сообщения
    Вы не можете голосовать в опросах
    Вы не можете прикреплять файлы к сообщениям
    Вы можете скачивать файлы