2 сезон

iTunes

MVO

1

2 сезон

iTunes

iTunes

1 сезон

RePack

30

Новинка

ВАЖНО

ИГРА 18+

pack

RePack

MK11
pack

Легкие деньги

RePack

jed

RePack

fifa19

RePack

RDR2

RePack

NEED FOR SPEED™ PAYBACK

4 сезон

9 сезон

Бесстыжие 9 сезон

Все сериалы

все сериалы на PB.wtf

RePack

FAR CRY 5

Anonymous, добрый вечер, мы не успеваем собрать деньги на оплату серверов за декабрь и январь, помогите нам пожалуйста в это трудное время. В качестве благодарности мы отключим Вам всю рекламу на сайте (укажите свой ник в строку Ваше имя)!

×
  
Magnet ссылка

Титаник в 3D / Titanic in 3D (Джеймс Кэмерон) [1997 г., драма, мелодрама, BDRip 1080p, Дубляж, лицензия] Anaglyph RAV pb.wtf

Титаник в 3D через торрент pb.wtf

Размер: 12.47 GB | Добавлен: 7 лет 7 мес. назад | Торрент скачан:119 раз
Скачать  

13-06-2013 11:57 Титаник в 3D Скачать торрент  

Титаник в 3D / Titanic in 3D
Год выпуска: 1997
Страна: США
Жанр: драма, мелодрама,
Продолжительность: 03:14:49
Перевод: Дубляж, Лицензия
Субтитры: Русские форсированные

Режиссер: Джеймс Кэмерон
Продюссер: Джеймс Кэмерон, Джон Ландау, Памела Исли
Сценарий: Джеймс Кэмерон

Бюджет: $200 000 000
Премьера в мире: 1 ноября 1997

IMDB 7.60 (474 007)



В ролях: Леонардо ДиКаприо, Кейт Уинслет, Билли Зейн, Кэти Бейтс, Фрэнсис Фишер, Глория Стюарт, Билл Пэкстон, Бернард Хилл, Дэвид Уорнер, Виктор Гарбер,
Роли дублировали: Александр Майоров, Варвара Чабан, Станислав Концевич, Елена Ставрогина, Татьяна Иванова,

Описание: Молодые влюбленные Джек и Роза находят друг друга в первом и последнем плавании «непотопляемого» Титаника. Они не могли знать, что шикарный лайнер столкнется с айсбергом в холодных водах Северной Атлантики, и их страстная любовь превратится в схватку со смертью...

Доп. информация: Формат 3D: Анаглиф red-cyan (RAV)

Внимание! Для просмотра нужны анаглифные очки красно-синезеленые и обычный (не 3D) телевизор или монитор

Качество: BDRip 1080p
Формат: MKV
Видео кодек: H.264
Аудио кодек: AC3
Видео: V_MPEG4/ISO/AVC, 1920х1080, 16:9, 23.976 fps, (0.161 bit/pixel)
Аудио#1: Русский / Дубляж 2012г, 6 channels, 48.0 KHz, 384 Kbps
Аудио#2: Русский / Дубляж 1997г, 6 channels, 48.0 KHz, 384 Kbps
Аудио#3: English / Original 2012, 6 channels, 48.0 KHz, 384 Kbps



скриншот   скриншот   скриншот   скриншот   скриншот   скриншот  
Общее
Уникальный идентификатор : 218029844770311939065129335846709730715 (0xA407054B5F0C2AD3B1C41696EC1F9D9B)
Полное имя : D:DVDTitanic_3D_RAV.mkv
Формат : Matroska
Версия формата : Version 2
Размер файла : 12,5 Гбайт
Продолжительность : 3 ч. 14 м.
Общий поток : 9166 Кбит/сек
Название фильма : Titanic_3D (RAV-Anaglyph)
Дата кодирования : UTC 2013-06-13 10:57:38
Программа кодирования : mkvmerge v3.4.0 ('Rapunzel') сборка от May 15 2010 09:38:20
Библиотека кодирования : libebml v0.8.0 + libmatroska v0.9.0

Видео
Идентификатор : 1
Формат : AVC
Формат/Информация : Advanced Video Codec
Профиль формата : Baseline@L4.0
Параметр CABAC формата : Нет
Параметр ReFrames формата : 1 кадр
Идентификатор кодека : V_MPEG4/ISO/AVC
Продолжительность : 3 ч. 14 м.
Битрейт : 8000 Кбит/сек
Ширина : 1920 пикселей
Высота : 1080 пикселей
Соотношение сторон : 16:9
Режим частоты кадров : Постоянный
Частота кадров : 23,976 кадра/сек
Цветовое пространство : YUV
Субдискретизация насыщенности : 4:2:0
Битовая глубина : 8 бит
Тип развёртки : Прогрессивная
Бит/(Пиксели*Кадры) : 0.161
Размер потока : 10,7 Гбайт (85%)
Заголовок : Titanic_3D_RAV
Библиотека кодирования : x264 core 130 r2273 b3065e6
Настройки программы : cabac=0 / ref=1 / deblock=0:0:0 / analyse=0:0 / me=dia / subme=0 / psy=1 / psy_rd=1.00:0.00 / mixed_ref=0 / me_range=16 / chroma_me=1 / trellis=0 / 8x8dct=0 / cqm=0 / deadzone=21,11 / fast_pskip=1 / chroma_qp_offset=0 / threads=3 / lookahead_threads=1 / sliced_threads=0 / nr=0 / decimate=1 / interlaced=0 / bluray_compat=0 / constrained_intra=0 / bframes=0 / weightp=0 / keyint=240 / keyint_min=24 / scenecut=0 / intra_refresh=0 / rc=abr / mbtree=0 / bitrate=8000 / ratetol=1.0 / qcomp=0.60 / qpmin=0 / qpmax=69 / qpstep=4 / ip_ratio=1.40 / aq=0
Язык : English
Default : Да
Forced : Нет
Основные цвета : BT.709
Характеристики трансфера : BT.709
Коэффициенты матрицы : BT.709

Аудио #1
Идентификатор : 2
Формат : AC-3
Формат/Информация : Audio Coding 3
Расширение режима : CM (complete main)
Параметр Endianness формата : Big
Идентификатор кодека : A_AC3
Продолжительность : 3 ч. 14 м.
Вид битрейта : Постоянный
Битрейт : 384 Кбит/сек
Каналы : 6 каналов
Расположение каналов : Front: L C R, Side: L R, LFE
Частота : 48,0 КГц
Битовая глубина : 16 бит
Метод сжатия : С потерями
Размер потока : 535 Мбайт (4%)
Заголовок : Дубляж 1997
Язык : Russian
Default : Нет
Forced : Нет

Аудио #2
Идентификатор : 3
Формат : AC-3
Формат/Информация : Audio Coding 3
Расширение режима : CM (complete main)
Параметр Endianness формата : Big
Идентификатор кодека : A_AC3
Продолжительность : 3 ч. 14 м.
Вид битрейта : Постоянный
Битрейт : 384 Кбит/сек
Каналы : 6 каналов
Расположение каналов : Front: L C R, Side: L R, LFE
Частота : 48,0 КГц
Битовая глубина : 16 бит
Метод сжатия : С потерями
Размер потока : 535 Мбайт (4%)
Заголовок : Дубляж 2012
Язык : Russian
Default : Нет
Forced : Да

Аудио #3
Идентификатор : 4
Формат : AC-3
Формат/Информация : Audio Coding 3
Расширение режима : CM (complete main)
Параметр Endianness формата : Big
Идентификатор кодека : A_AC3
Продолжительность : 3 ч. 14 м.
Вид битрейта : Постоянный
Битрейт : 384 Кбит/сек
Каналы : 6 каналов
Расположение каналов : Front: L C R, Side: L R, LFE
Частота : 48,0 КГц
Битовая глубина : 16 бит
Метод сжатия : С потерями
Размер потока : 535 Мбайт (4%)
Заголовок : Original 2012
Язык : English
Default : Нет
Forced : Нет

Текст
Идентификатор : 5
Формат : UTF-8
Идентификатор кодека : S_TEXT/UTF8
Идентификатор кодека/Информация : UTF-8 Plain Text
Заголовок : Forse
Язык : Russian
Default : Нет
Forced : Нет


Титаник скачать торрент


pb.wtf



Скачать Титаник в 3D через торрент http://i46.fastpic.ru/big/2013/0613/36/c34a2b1a14cc07196f77a9ab3d8edc36.gif Скачать фильм Титаник в 3D через торрент бесплантно в хорошем качестве Описание: Молодые влюбленные Джек и Роза находят друг друга в первом и последнем плавании «непотопляемого» Титаника. Они не могли знать, ... 7 10 9
Info! Золотая раздача, скачанное не засчитывается.
Торрент: Зарегистрирован [2013-06-13 11:57] · скачан: 119 раз
Статус: √ проверено
Размер: 12.47 GB
Как cкачать? Как скачать Титаник в 3D через торрент | UTorrent

28-11-2019 20:33  

Отключить всю рекламу на сайте

13-06-2013 12:44 Титаник в 3D Скачать торрент  

Я б не назвал анаглиф 3д форматом.После него болят глаза, да и половина "цветовой схемы" пропадаетpb.wtf



13-06-2013 13:34 Титаник в 3D Скачать торрент  

вроде не пил, а скрины двояться pb.wtf



    Дорогой пользователь! Огромная просьба, поблагодарите релизера, оцените раздачу и оставьте свои комментарий, если Вы скачали Титаник в 3D через торрент бесплатно! Внесите свою лепту в развитие PiratBit!
    Комментировать посты могут только пользователи прошедшие не сложную регистрацию
    Показать сообщения:    

    Титаник в 3D через торрент
    Скачать бесплатно Титаник в 3D
    Титаник в 3D скачать торрент
    Титаник в 3D смотреть онлайн
    Cкачать фильм Титаник в 3D бесплатно
    Титаник в 3D скачать торрент в хорошем качестве
    Титаник в 3D смотреть онлайн бесплатно в хорошем качестве


    Вы не можете начинать темы
    Вы не можете отвечать на сообщения
    Вы не можете редактировать свои сообщения
    Вы не можете удалять свои сообщения
    Вы не можете голосовать в опросах
    Вы не можете прикреплять файлы к сообщениям
    Вы можете скачивать файлы