новый адрес
Ссылка на приватное зеркало всего за 1$. Внимание количество ограничено!!!

iTunes

1+1

iTunes

мы

WEB-DL

1

iTunes

Чернобыль

iTunes

Ральф против интернета

Лицензия

ПШазам

Лицензия

Оно 2

Лицензия

30
pack

Вам бонус

ВАЖНО

!!Акция!!

Alien_RageХит недели

RePack

Resident Evil 21

ИГРА 18+

pack

RePack

jed

!!Акция!!

Alien_Rage

RePack

fifa19

RePack

Assassins Creed: Odyssey

RePack

NEED FOR SPEED™ PAYBACK

3 сезон

9 сезон

Бесстыжие 9 сезон

Все сериалы

все сериалы на PB.wtf

RePack

FAR CRY 5
Ребята, катастрофически не хватает 1900р. для оплаты серверов за Октябрь (всвязи с блокировками трафик упал в 3 раза), 1-2р., выручайте.
  

Влacть убеждений / The Power of Few (Леоне Маркуччи / Leone Marucci) [2013, боевик, триллер, драма , WEB-DLRip] DVO [Петя и Ко] pb.wtf

Влacть убеждений через торрент pb.wtf

Размер: 1.37 GB | Добавлен: 6 лет 6 мес. назад | Торрент скачан:785 раз
Скачать  

01-06-2013 16:49 Влacть убеждений Скачать торрент  

Влacть убеждений / The Power of Few


  • Год выпуска:2013
  • Страна: США
  • Жанр:боевик, триллер, драма, криминал, детектив
  • Продолжительность: 01:35:56
  • Перевод:Любительский (двухголосый)[Петя и Ко]
    • Режиссер: Леоне Маркуччи / Leone Marucci
    • Продюсер: Джей Темз / Jay Thames, Фред д’Амико / Fred D'Amico, Джимми Холкомб / Jimmy Holcomb, К’Орианка Килчер / Q'Orianka Kilcher, Рой Скотт МакФарлэнд / Roy Scott MacFarland
    • Сценарий:Леоне Маркуччи / Leone Marucci

  • В ролях:Кристофер Уокен (Doke), Кристиан Слэйтер (Clyde), К’Орианка Килчер (Alexa / Producer), Энтони Андерсон (Junkshow), Джесси Брэдфорд (Dom), Мун Бладгуд (Mala), Никки Уилан (Marti), Девон Джирхарт (Cory), Джордан Прентис (Brown), Джувенил (Shamu), Навид Негабан (Sahel), Дерек Ричардсон (Shane)
    • Описание:
      Через двадцать минут жизнь в маленьком городке в Новом Орлеане круто изменится. Как? Вариантов - бесчисленное множество, ведь за эти 20 минут может произойти бесчетное количество событий. Полисмены, шпионы, бродяги, криминальные авторитеты, религиозные лидеры, городские зеваки... - каждый может совершить нечто, что развернет течение истории в другом направлении. Ведь все мы неразрывно связаны друг с другом, даже если не подозреваем об этом! Выбор самого маленького человека может повлиять на самые большие события в мире...

  • Рейтинг
    kinopoisk.ru: 6.765 (46)
    imdb.com: 4.80 (353)
    MPAA: R - Лицам до 17 лет обязательно присутствие взрослого
    • Качество: WEB-DLRip
    • Формат: AVI
    • Видео кодек: XviD
    • Аудио кодек: AC3
    • Видео: XviD; 720x400 (16:9); 1581 Kbps; 23,976 fps; 0,229 bpp
    • Аудио: AC3; 448 Kbps; CBR; 6 ch; 16 bit, 48 kHz

    General
    Complete name : D:ТорентыVlast.ubejdenij.2013.L2.WEBDLRip.1400MB.avi
    Format : AVI
    Format/Info : Audio Video Interleave
    File size : 1.37 GiB
    Duration : 1h 35mn
    Overall bit rate : 2 039 Kbps
    Writing application : VirtualDubMod 1.5.10.2 (build 2540/release)
    Writing library : VirtualDubMod build 2540/release

    Video
    ID : 0
    Format : MPEG-4 Visual
    Format profile : Advanced Simple@L5
    Format settings, BVOP : 2
    Format settings, QPel : No
    Format settings, GMC : No warppoints
    Format settings, Matrix : Default (MPEG)
    Codec ID : XVID
    Codec ID/Hint : XviD
    Duration : 1h 35mn
    Bit rate : 1 582 Kbps
    Width : 720 pixels
    Height : 400 pixels
    Display aspect ratio : 16:9
    Frame rate : 23.976 fps
    Color space : YUV
    Chroma subsampling : 4:2:0
    Bit depth : 8 bits
    Scan type : Progressive
    Compression mode : Lossy
    Bits/(Pixel*Frame) : 0.229
    Stream size : 1.06 GiB (78%)
    Writing library : XviD 1.2.1 (UTC 2008-12-04)

    Audio
    ID : 1
    Format : AC-3
    Format/Info : Audio Coding 3
    Mode extension : CM (complete main)
    Codec ID : 2000
    Duration : 1h 35mn
    Bit rate mode : Constant
    Bit rate : 448 Kbps
    Channel(s) : 6 channels
    Channel positions : Front: L C R, Side: L R, LFE
    Sampling rate : 48.0 KHz
    Bit depth : 16 bits
    Compression mode : Lossy
    Stream size : 307 MiB (22%)
    Alignment : Split accross interleaves
    Interleave, duration : 42 ms (1.00 video frame)
    Interleave, preload duration : 500 ms
    Сценарий: Леоне Маркуччи / Leone Marucci
    Продюсер: Джей Темз / Jay Thames, Фред д’Амико / Fred D'Amico, Джимми Холкомб / Jimmy Holcomb, К’Орианка Килчер / Q'Orianka Kilcher, Рой Скотт МакФарлэнд / Roy Scott MacFarland
    Оператор: Рейнхарт «Рэйтим» Печк / Reinhart «Rayteam» Peschke
    Композитор: Майкл Симпсон / Michael Simpson

    Бюджет: $7 500 000
    Сборы в США: $25 000

    Мировая премьера: 15 февраля 2013


    Скриншоты
    © Оформление by Vetalpb.wtf



  • Скачать Влacть убеждений через торрент http://i47.fastpic.ru/big/2013/0505/55/ff0fbc48f98fa52c0fc275351a996d55.png Скачать фильм Влacть убеждений через торрент бесплантно в хорошем качестве Описание:Через двадцать минут жизнь в маленьком городке в Новом Орлеане круто изменится. Как? Вариантов - бесчисленное множество, ведь за ... 9.5 10 22
    Info! Золотая раздача, скачанное не засчитывается.
    Торрент: Зарегистрирован [2013-06-01 16:49] · скачан: 785 раз
    Статус: √ проверено
    Размер: 1.37 GB
    Как cкачать? Как скачать Влacть убеждений через торрент | qTorrent

    28-11-2019 20:33  

    Отключить всю рекламу на сайте

    02-06-2013 07:25 Влacть убеждений Скачать торрент  

    А могло ведь и прикольным фильмом быть.pb.wtf



    02-06-2013 17:13 Влacть убеждений Скачать торрент  

    А он и прикольный! :good:pb.wtf



    01-07-2013 17:52 Влacть убеждений Скачать торрент  

    скачаю из-за блондинкиpb.wtf



    06-07-2013 06:12 Влacть убеждений Скачать торрент  

    бомжы задрали о смысли жизни базарить.у баклажанов тачка отпад.кинчик можно глянут.есть та изюминка с переплетением судьб.есть шикарный фильм подобного жанра:Столкновение.Очень сильный фильм,для тех кто не в курсе.все.pb.wtf



      Дорогой пользователь! Огромная просьба, поблагодарите релизера, оцените раздачу и оставьте свои комментарий, если Вы скачали Влacть убеждений через торрент бесплатно! Внесите свою лепту в развитие PiratBit!
      Комментировать посты могут только пользователи прошедшие не сложную регистрацию
      Показать сообщения:    

      Влacть убеждений через торрент
      Скачать бесплатно Влacть убеждений
      Влacть убеждений скачать торрент
      Влacть убеждений смотреть онлайн
      Cкачать фильм Влacть убеждений бесплатно
      Влacть убеждений скачать торрент в хорошем качестве
      Влacть убеждений смотреть онлайн бесплатно в хорошем качестве


      Вы не можете начинать темы
      Вы не можете отвечать на сообщения
      Вы не можете редактировать свои сообщения
      Вы не можете удалять свои сообщения
      Вы не можете голосовать в опросах
      Вы не можете прикреплять файлы к сообщениям
      Вы можете скачивать файлы