2 сезон

iTunes

MVO

1

2 сезон

iTunes

iTunes

1 сезон

RePack

30

Новинка

ВАЖНО

ИГРА 18+

pack

RePack

MK11
pack

Легкие деньги

RePack

jed

RePack

fifa19

RePack

RDR2

RePack

NEED FOR SPEED™ PAYBACK

4 сезон

9 сезон

Бесстыжие 9 сезон

Все сериалы

все сериалы на PB.wtf

RePack

FAR CRY 5

Anonymous, добрый день, мы не успеваем собрать деньги на оплату серверов за декабрь и январь, помогите нам пожалуйста в это трудное время. В качестве благодарности мы отключим Вам всю рекламу на сайте (укажите свой ник в строку Ваше имя)!

×
  
Magnet ссылка

Таймлесс. Рубиновая книга / Rubinrot (Феликс Фуксштайнер) [2013 г., фантастика, фэнтези, приключения, BDRip, Профессиональный (дублированный)] pb.wtf

Таймлесс. Рубиновая книга через торрент pb.wtf

Размер: 1.46 GB | Добавлен: 7 лет 8 мес. назад | Торрент скачан:790 раз
Скачать  

21-05-2013 05:36 Таймлесс. Рубиновая книга Скачать торрент  

Таймлесс. Рубиновая книга / Rubinrot


Год выпуска: 2013
Страна: Германия
Жанр: фантастика, фэнтези, приключения,
Продолжительность: 02:01:11
Перевод: Профессиональный (дублированный)

Режиссер: Феликс Фуксштайнер
Продюссер: Том Блинингер, Феликс Фуксштайнер, Роберт Марсиньяк
Сценарий: Катарина Шёде, Керстин Гир

Премьера в мире: 14 марта 2013

IMDB 6.00 (360)


В ролях: Мария Эрих, Яннис Нивёнер, Вероника Феррес, Уве Коккиш, Катарина Тальбах, Готфрид Йон, Герлинде Локкер, Рюдигер Фоглер, Флориан Бартоломай, Дженнифер Лотси, Наталья Терешкова, Сергей Смирнов, Елена Харитонова, Михаил Бескаравайный, Ирина Гришина,

Описание: Живущая в Лондоне шестнадцатилетняя Гвендолин Шеферд случайно узнает, что обладает уникальным геном путешественника во времени, который унаследовала от прапрабабушки. Теперь девушка может ежедневно переноситься в прошлое, и с каждым днем загадок становится все больше. Что такое «Тайна Двенадцати»? Кто охотится на путешественников во времени в прошлом? И почему все вокруг думают, что она обладает какой-то «магией ворона»?

Качество: BDRip (Blu-ray 1080p)
Формат: AVI
Видео кодек: XviD
Аудио кодек: AC3
Видео: Xvid 720x304 24fps 1265kbps
Аудио: Dolby AC3 48000Hz 6ch 448kbps


Скриншоты:

скриншот   скриншот   скриншот   скриншот  

General
Complete name : E:ФильмыRubinovaya.kniga.2013.BDRip.avi
Format : AVI
Format/Info : Audio Video Interleave
File size : 1.46 GiB
Duration : 2h 1mn
Overall bit rate : 1 723 Kbps
Writing application : VirtualDubModRus 1.5.10.2 (build 2542/release)
Writing library : VirtualDubMod build 2542/release

Video
ID : 0
Format : MPEG-4 Visual
Format profile : Advanced Simple@L5
Format settings, BVOP : 1
Format settings, QPel : No
Format settings, GMC : No warppoints
Format settings, Matrix : Custom
Codec ID : XVID
Codec ID/Hint : XviD
Duration : 2h 1mn
Bit rate : 1 265 Kbps
Width : 720 pixels
Height : 304 pixels
Display aspect ratio : 2.35:1
Frame rate : 24.000 fps
Color space : YUV
Chroma subsampling : 4:2:0
Bit depth : 8 bits
Scan type : Progressive
Compression mode : Lossy
Bits/(Pixel*Frame) : 0.241
Stream size : 1.07 GiB (73%)
Writing library : XviD 65

Audio
ID : 1
Format : AC-3
Format/Info : Audio Coding 3
Mode extension : CM (complete main)
Format settings, Endianness : Big
Codec ID : 2000
Duration : 2h 1mn
Bit rate mode : Constant
Bit rate : 448 Kbps
Channel(s) : 6 channels
Channel positions : Front: L C R, Side: L R, LFE
Sampling rate : 48.0 KHz
Bit depth : 16 bits
Compression mode : Lossy
Stream size : 388 MiB (26%)
Alignment : Split accross interleaves
Interleave, duration : 42 ms (1.00 video frame)
Interleave, preload duration : 500 ms


Таймлесс. Рубиновая книга скачать торрент


pb.wtf



Скачать Таймлесс. Рубиновая книга через торрент http://pic.kartinco.top/images/2/ry2smjgox2.jpg Скачать фильм Таймлесс. Рубиновая книга через торрент бесплантно в хорошем качестве Описание: Живущая в Лондоне шестнадцатилетняя Гвендолин Шеферд случайно узнает, что обладает уникальным геном путешественника во времени, ... 9.7 10 32
Info! Золотая раздача, скачанное не засчитывается.
Торрент: Зарегистрирован [2013-05-21 05:36] · скачан: 790 раз
Статус: √ проверено
Размер: 1.46 GB
Как cкачать? Как скачать Таймлесс. Рубиновая книга через торрент | UTorrent

% Раздел Тема Автор DL S | L
Фильмы [HD 720p, 1080p] (Хороший звук DUB, MVO) [ 9.95 GB ] Таймлесс. Рубиновая книга / Rubinrot [2013 BDRip 1080p] diletant Скачать
1 | 0
Фильмы 2013 [DVDrip, WEB-DLRip, HDrip] [ 1.37 GB ] Таймлесс. Рубиновая книга / Rubinrot [ 2013 DVDRip ] DUB лицензия Ворон Скачать
1 | 0
Фильмы 2013 [DVDrip, WEB-DLRip, HDrip] [ 2.18 GB ] Таймлесс. Рубиновая книга / Rubinrot [2013 DVDRip лицензия] кэп Скачать
1 | 0
Фильмы [HD 720p, 1080p] (Хороший звук DUB, MVO) [ 7.47 GB ] Таймлесс. Рубиновая книга / Rubinrot [2013 BDRip 720p] diletant Скачать
1 | 0
Фильмы (DVD фильмы) [ 7.25 GB ] Таймлесс. Рубиновая книга / Rubinrot [2013 DVD9] R5 voovaz Скачать
1 | 0

28-11-2019 20:33  

Отключить всю рекламу на сайте

21-05-2013 07:22 Таймлесс. Рубиновая книга Скачать торрент  

Если кому то надо в блюрике или в 720р, то пишите, ближе к вечеру залью, как время будет.pb.wtf



    Дорогой пользователь! Огромная просьба, поблагодарите релизера, оцените раздачу и оставьте свои комментарий, если Вы скачали Таймлесс. Рубиновая книга через торрент бесплатно! Внесите свою лепту в развитие PiratBit!
    Комментировать посты могут только пользователи прошедшие не сложную регистрацию
    Показать сообщения:    

    Таймлесс. Рубиновая книга через торрент
    Скачать бесплатно Таймлесс. Рубиновая книга
    Таймлесс. Рубиновая книга скачать торрент
    Таймлесс. Рубиновая книга смотреть онлайн
    Cкачать фильм Таймлесс. Рубиновая книга бесплатно
    Таймлесс. Рубиновая книга скачать торрент в хорошем качестве
    Таймлесс. Рубиновая книга смотреть онлайн бесплатно в хорошем качестве


    Вы не можете начинать темы
    Вы не можете отвечать на сообщения
    Вы не можете редактировать свои сообщения
    Вы не можете удалять свои сообщения
    Вы не можете голосовать в опросах
    Вы не можете прикреплять файлы к сообщениям
    Вы можете скачивать файлы