Доктор Стрэндж

Лицензия

Добыча

Дубляж

Дом дракона

1 сезон

Тор

Дубляж

В эфире

Дубляж

Там, где раки поют

MVO

Властелин колец

1 сезон

GLOBAL

pack

Рекомендуем

30

Пиратка

ВАЖНО

ВАЖНО

Ghostwire

Пиратка

jed

RePack

nioh2

RePack

RDR2

RePack

NEED FOR SPEED™ PAYBACK

RePack

скачать торрент

Кинопоиск HD

Острые козырьки 6 сезон

6 сезон

FAR CRY 6

RePack

скачать торрент

Лицензия

скачать торрент

MVO

1

1 сезон

скачать торрент

1 сезон

скачать торрент

Лицензия

  

Порочная страсть / Arbitrage (Николас Джареки) [2012 г., триллер, драма, BDRip 720p, Дубляж, лицензия]

Порочная страсть через торрент pb.wtf

Размер: 5.83 GB | Добавлен: 9 лет 5 мес. назад | Торрент скачан:73 раза
Смотреть онлайн | Скачать   

13-06-2013 16:51 Порочная страсть Скачать торрент  

Порочная страсть / Arbitrage «Влacть - лучшее алиби» Год выпуска: 2012
Страна: США
Жанр: триллер, драма
Продолжительность: 01:47:23
Перевод: Дубляж, Лицензия
Тип релиза: Лицензия
Субтитры: Есть

Режиссер: Николас Джареки
Продюссер: Лаура Бикфорд, Джастин Наппи, Роберт Салерно
Сценарий: Николас Джареки

Бюджет: $12 000 000
Премьера в мире: 21 января 2012



IMDB 6.70 (22 068)



В ролях: Ричард Гир, Сьюзен Сарандон, Тим Рот, Брит Марлинг, Летиция Каста, Нэйт Паркер, Стюарт Марголин, Крис Айгеман, Грейдон Картер, Брюс Олтмен

Описание: Роберт Миллер — харизматичный аферист и гениальный любовник. Он привык к тому, что в постелях его всегда ждут жена и любовница, которые, правда, попеременно закатывают ему скандалы, а огромные деньги делаются просто из воздуха. Но дутый бизнес не может держаться долго. Почуяв провал, он стремится поскорее продать свой хедж-фонд крупному банку, прежде чем раскроются его махинации. Непредвиденные события и нелепые ошибки толкают его на отчаянный шаг...

Качество: BDRip 720p
Формат: MKV
Видео кодек: H.264
Аудио кодек: DTS
Видео: 1280x720 (16:9), 23.976 fps, 5 500 Kbps (0.249 bit/pixel)
Аудио #1: DTS, 48.0 KHz, 6 ch, 755 Kbps, CBR (Russian)
Аудио #2: DTS, 48.0 KHz, 6 ch, 1 510 Kbps, CBR (English)
Субтитры: Russian, English








Общее
Уникальный идентификатор : 238379255340676154364279705172454128458 (0xB3562CB2769B185DAEC0203E4867BB4A)
Полное имя : F:Порочная страсть.2012.BDRip.720p..mkv
Формат : Matroska
Версия формата : Version 2
Размер файла : 5,83 Гбайт
Продолжительность : 1 ч. 47 м.
Общий поток : 7762 Кбит/сек
Название фильма : Порочная страсть
Дата кодирования : UTC 2012-12-11 12:55:35
Программа кодирования : mkvmerge v4.9.1 ('Ich will') сборка от Jul 11 2011 23:53:15
Библиотека кодирования : libebml v1.2.1 + libmatroska v1.1.1

Видео
Идентификатор : 1
Формат : AVC
Формат/Информация : Advanced Video Codec
Профиль формата : [email protected]
Параметр CABAC формата : Да
Параметр ReFrames формата : 9 кадров
Идентификатор кодека : V_MPEG4/ISO/AVC
Продолжительность : 1 ч. 47 м.
Битрейт : 5500 Кбит/сек
Ширина : 1280 пикселей
Высота : 720 пикселей
Соотношение сторон : 16:9
Режим частоты кадров : Постоянный
Частота кадров : 23,976 кадра/сек
Цветовое пространство : YUV
Субдискретизация насыщенности : 4:2:0
Битовая глубина : 8 бит
Тип развёртки : Прогрессивная
Бит/(Пиксели*Кадры) : 0.249
Размер потока : 4,01 Гбайт (69%)
Заголовок : Arbitrage.2012.720p.BluRay.x264.DTS-HDChina
Библиотека кодирования : x264 core 129 r2230+696+36 4446aa2 tMod+MixAQ [[email protected]:2:0 X86_64]
Настройки программы : cabac=1 / ref=9 / deblock=1:-3:-3 / analyse=0x3:0x113 / me=umh / subme=10 / psy=1 / fade_compensate=0.00 / psy_rd=1.10:0.00 / mixed_ref=1 / me_range=32 / chroma_me=1 / trellis=2 / 8x8dct=1 / cqm=0 / deadzone=21,11 / fast_pskip=0 / chroma_qp_offset=-2 / threads=18 / lookahead_threads=3 / sliced_threads=0 / nr=0 / decimate=0 / interlaced=0 / bluray_compat=0 / constrained_intra=0 / fgo=0 / bframes=8 / b_pyramid=2 / b_adapt=2 / b_bias=0 / direct=3 / weightb=1 / open_gop=0 / weightp=2 / keyint=240 / keyint_min=24 / scenecut=40 / intra_refresh=0 / rc_lookahead=240 / rc=2pass / mbtree=1 / bitrate=5500 / ratetol=1.0 / qcomp=0.70 / qpmin=0 / qpmax=69 / qpstep=4 / cplxblur=20.0 / qblur=0.5 / ip_ratio=1.10 / aq=4 / aq-strength=0.90 / aq-sensitivity=10.00 / aq-ifactor=1.00 / aq-pfactor=1.00 / aq-bfactor=1.00 / aq2=0
Язык : English
Default : Да
Forced : Да

Аудио #1
Идентификатор : 2
Формат : DTS
Формат/Информация : Digital Theater Systems
Режим : 16
Параметр Endianness формата : Big
Идентификатор кодека : A_DTS
Продолжительность : 1 ч. 47 м.
Вид битрейта : Постоянный
Битрейт : 755 Кбит/сек
Каналы : 6 каналов
Расположение каналов : Front: L C R, Side: L R, LFE
Частота : 48,0 КГц
Битовая глубина : 24 бит
Метод сжатия : С потерями
Размер потока : 580 Мбайт (10%)
Заголовок : DTS 5.1 @ 768 kbps - Дубляж, BD RUS
Язык : Russian
Default : Да
Forced : Да

Аудио #2
Идентификатор : 3
Формат : DTS
Формат/Информация : Digital Theater Systems
Режим : 16
Параметр Endianness формата : Big
Идентификатор кодека : A_DTS
Продолжительность : 1 ч. 47 м.
Вид битрейта : Постоянный
Битрейт : 1509 Кбит/сек
Каналы : 6 каналов
Расположение каналов : Front: L C R, Side: L R, LFE
Частота : 48,0 КГц
Битовая глубина : 24 бит
Метод сжатия : С потерями
Размер потока : 1,13 Гбайт (19%)
Заголовок : DTS 5.1 @ 1536 kbps
Язык : English
Default : Нет
Forced : Нет

Текст #1
Идентификатор : 4
Формат : UTF-8
Идентификатор кодека : S_TEXT/UTF8
Идентификатор кодека/Информация : UTF-8 Plain Text
Язык : Russian
Default : Нет
Forced : Нет

Текст #2
Идентификатор : 5
Формат : UTF-8
Идентификатор кодека : S_TEXT/UTF8
Идентификатор кодека/Информация : UTF-8 Plain Text
Язык : English
Default : Нет
Forced : Нет

Меню
00:00:00.000 : en:00:00:00.000
00:06:24.551 : en:00:06:24.551
00:13:58.671 : en:00:13:58.671
00:20:41.991 : en:00:20:41.991
00:27:21.974 : en:00:27:21.974
00:35:00.473 : en:00:35:00.473
00:40:28.926 : en:00:40:28.926
00:47:20.379 : en:00:47:20.379
00:54:28.891 : en:00:54:28.891
00:57:56.264 : en:00:57:56.264
01:06:57.680 : en:01:06:57.680
01:14:24.502 : en:01:14:24.502
01:19:12.915 : en:01:19:12.915
01:27:47.637 : en:01:27:47.637
01:37:16.456 : en:01:37:16.456
01:40:32.944 : en:01:40:32.944


Порочная страсть скачать торрент








Скачать Порочная страсть через торрент https://pic1.kartinco.top/images/21/ctuzlelk4s.jpg Скачать, смотреть онлайн Порочная страсть бесплантно в хорошем качестве Описание: Роберт Миллер — харизматичный аферист и гениальный любовник. Он привык к тому, что в постелях его всегда ждут жена и любовница, ... 9.1 10 10
Info! Золотая раздача, скачанное не засчитывается.
Торрент: Зарегистрирован [2013-06-13 16:51] · скачан: 73 раз
Статус: √ проверено
Размер: 5.83 GB
Как cкачать? Как скачать Порочная страсть через торрент | UTorrent

% Раздел Тема Автор DL S | L
Фильмы 2012 [ 1.45 GB ] Порочная страсть / Arbitrage | DUB |лицензия| | HDRip Ворон Скачать
1 | 0
Фильмы 2012 [ 1.46 GB ] Порочная страсть / Arbitrage | DUB |лицензия| | DVDRip NarutoSasuke Скачать
1 | 0
Фильмы 2012 [ 1.46 GB ] Порочная страсть / Arbitrage | Дубляж | DLRip, Дубляж, лицензия shuller Скачать
1 | 0
Фильмы (DVD фильмы) [ 6.92 GB ] Порочная страсть / Arbitrage | | Порочная страсть / Arbitrage (Николас Джареки / Nicholas Jarecki voovaz Скачать
1 | 0

28-11-2019 20:33  


Отключить вcю реклaмy на сайте, в т.ч. и в плеере онлайн просмотра!

    Дорогой пользователь! Огромная просьба, поблагодарите релизера, оцените раздачу и оставьте свои комментарий, если Вы скачали Порочная страсть через торрент бесплатно!!
    Комментировать посты могут только пользователи прошедшие не сложную регистрацию
    Показать сообщения:    


    Порочная страсть через торрент
    Скачать бесплатно Порочная страсть
    Порочная страсть скачать торрент
    Порочная страсть смотреть онлайн
    Cкачать фильм Порочная страсть бесплатно
    Порочная страсть скачать торрент в хорошем качестве
    Порочная страсть смотреть онлайн бесплатно в хорошем качестве
    Вы не можете начинать темы
    Вы не можете отвечать на сообщения
    Вы не можете редактировать свои сообщения
    Вы не можете удалять свои сообщения
    Вы не можете голосовать в опросах
    Вы не можете прикреплять файлы к сообщениям
    Вы можете скачивать файлы
    Порочная страсть / Arbitrage [2012 г., триллер, драма, BDRip 720p, Дубляж, лицензия] смотреть онлайн, скачать торрент picoco.icu