2 сезон

iTunes

1 сезон

1

iTunes

iTunes

iTunes

1 сезон

RePack

30

ИГРА 18+

pack

ВАЖНО

!!Акция!!

Alien_RageХит недели

RePack

MK11
pack

Забери бонус

RePack

jed

!!Акция!!

Alien_Rage

RePack

fifa19

RePack

Assassins Creed: Odyssey

RePack

NEED FOR SPEED™ PAYBACK

4 сезон

9 сезон

Бесстыжие 9 сезон

Все сериалы

все сериалы на PB.wtf

RePack

FAR CRY 5
  

Паркер / Parker (Тейлор Хэкфорд) [2013 г., Боевик, триллер, криминал, BDRip 1080p, Дубляж + Оригинал] pb.wtf

Паркер через торрент pb.wtf

Размер: 14.68 GB | Добавлен: 7 лет 4 мес. назад | Торрент скачан:89 раз
Скачать  

14-06-2013 09:46 Паркер Скачать торрент  

Паркер / ParkerГод выпуска: 2013
Страна: США Alexander/ Mitchell Productions, Anvil Films, Current Entertainment, Incentive Filmed Entertainment, Sidney Kimmel Entertainment, Sierra Pictures
Жанр: Боевик, триллер, криминал,
Продолжительность: 01:58:40
Перевод: Дубляж + Оригинал
Субтитры: Английские, испанские

Режиссер: Тейлор Хэкфорд




В ролях: Джейсон Стэйтем, Дженнифер Лопес, Майкл Чиклис, Уенделл Пирс, Клифтон Коллинз мл., Бобби Каннавейл, Пэтти ЛюПон, Карлос Карраско, Мика А. Хауптман, Эмма Бут, Ник Нолти, Дэниэл Бернхард, Билли Слотер, Джон Айс, Карл Дж. Уолкер, Сала Бэйкер, Рио Хекфорд, Кирк Балц, Эрл Мэддокс, Джеймс Каррауэй, Шэрон Ландри, Кристин Брайант, Ребекка Маркс, Алишиа Ош, Мадлен Маркс, Кип Гилмен, Треверс Мэкель, Рэнди Россо, Имон Шиэн, Чак Пицерни мл., Фелипе Саваж, Марк Драт, Питер Хэйг, Морин Соломон, Дерек Сесил,

Описание: Главный герой — профессиональный вор, руководствующийся собственным моральным кодексом, но способный запросто отправить на тот свет любого, кто перейдет ему дорогу.

Качество: BDRip 1080p
Формат: MKV
Видео кодек: MPEG4/AVC
Аудио кодек: DTS
Видео: 1920x800 at 23.976 fps, x264@L4.1, ~14.5 Mbps avg
Аудио#1: Russian: 48 kHz, DTS, 3/2 (L,C,R,l,r) + LFE ch, ~1536.00 kbps avg |Дубляж, Blu-ray|
Аудио#2: English: 48 kHz, DTS, 3/2 (L,C,R,l,r) + LFE ch, ~1536.00 kbps avg
Аудио#3: English: 48 kHz, AC3, 2/0 (L,R) ch, ~192.00 kbps avg|Commentary with Director Taylor Hackford|
Релиз от:
Общее
Уникальный идентификатор : 176805349571014240744781369307721699579 (0x850378C1C4A3BF9D91C415818FC510FB)
Полное имя : K:Parker.2013.1080p.BluRay.Rus.2xEng.HDCLUB.mkv
Формат : Matroska
Версия формата : Version 2
Размер файла : 14,7 Гбайт
Продолжительность : 1 ч. 58 м.
Общий поток : 17,7 Мбит/сек
Название фильма : Parker (2013) - Release for HDCLUB
Дата кодирования : UTC 2013-06-13 17:51:15
Программа кодирования : mkvmerge v3.4.0 ('Rapunzel') built on May 15 2010 09:38:20
Библиотека кодирования : libebml v0.8.0 + libmatroska v0.9.0

Видео
Идентификатор : 1
Формат : AVC
Формат/Информация : Advanced Video Codec
Профиль формата : High@L4.1
Параметр CABAC формата : Да
Параметр ReFrames формата : 5 кадров
Идентификатор кодека : V_MPEG4/ISO/AVC
Продолжительность : 1 ч. 58 м.
Битрейт : 14,1 Мбит/сек
Ширина : 1920 пикселей
Высота : 800 пикселей
Соотношение сторон : 2,40:1
Режим частоты кадров : Постоянный
Частота кадров : 23,976 кадра/сек
Цветовое пространство : YUV
Субдискретизация насыщенности : 4:2:0
Битовая глубина : 8 бит
Тип развёртки : Прогрессивная
Бит/(Пиксели*Кадры) : 0.384
Размер потока : 11,7 Гбайт (80%)
Заголовок : Parker (2013) - Release for HDCLUB
Язык : English
Default : Нет
Forced : Нет

Аудио #1
Идентификатор : 2
Формат : DTS
Формат/Информация : Digital Theater Systems
Режим : 16
Параметр Endianness формата : Big
Идентификатор кодека : A_DTS
Продолжительность : 1 ч. 58 м.
Вид битрейта : Постоянный
Битрейт : 1510 Кбит/сек
Каналы : 6 каналов
Расположение каналов : Front: L C R, Side: L R, LFE
Частота : 48,0 КГц
Битовая глубина : 24 бит
Метод сжатия : С потерями
Размер потока : 1,25 Гбайт (9%)
Заголовок : DTS 5.1 @ 1536 kbps, Dub Blu-ray
Язык : Russian
Default : Да
Forced : Нет

Аудио #2
Идентификатор : 3
Формат : DTS
Формат/Информация : Digital Theater Systems
Режим : 16
Параметр Endianness формата : Big
Идентификатор кодека : A_DTS
Продолжительность : 1 ч. 58 м.
Вид битрейта : Постоянный
Битрейт : 1509 Кбит/сек
Каналы : 6 каналов
Расположение каналов : Front: L C R, Side: L R, LFE
Частота : 48,0 КГц
Битовая глубина : 24 бит
Метод сжатия : С потерями
Задержка видео : 11 мс.
Размер потока : 1,25 Гбайт (9%)
Заголовок : DTS 5.1 @ 1536 kbps
Язык : English
Default : Нет
Forced : Нет

Аудио #3
Идентификатор : 4
Формат : AC-3
Формат/Информация : Audio Coding 3
Профиль формата : Dolby Digital
Расширение режима : CM (complete main)
Параметр Endianness формата : Big
Идентификатор кодека : A_AC3
Продолжительность : 1 ч. 58 м.
Вид битрейта : Постоянный
Битрейт : 192 Кбит/сек
Каналы : 2 канала
Расположение каналов : Front: L R
Частота : 48,0 КГц
Битовая глубина : 16 бит
Метод сжатия : С потерями
Размер потока : 163 Мбайт (1%)
Заголовок : Commentary
Язык : English
Default : Нет
Forced : Нет

Текст #1
Идентификатор : 5
Формат : UTF-8
Идентификатор кодека : S_TEXT/UTF8
Идентификатор кодека/Информация : UTF-8 Plain Text
Заголовок : Full
Язык : English
Default : Нет
Forced : Нет

Текст #2
Идентификатор : 6
Формат : UTF-8
Идентификатор кодека : S_TEXT/UTF8
Идентификатор кодека/Информация : UTF-8 Plain Text
Заголовок : SDH
Язык : English
Default : Нет
Forced : Нет

Текст #3
Идентификатор : 7
Формат : UTF-8
Идентификатор кодека : S_TEXT/UTF8
Идентификатор кодека/Информация : UTF-8 Plain Text
Заголовок : SDH-Colored
Язык : English
Default : Нет
Forced : Нет

Текст #4
Идентификатор : 8
Формат : UTF-8
Идентификатор кодека : S_TEXT/UTF8
Идентификатор кодека/Информация : UTF-8 Plain Text
Заголовок : Commentary
Язык : English
Default : Нет
Forced : Нет

Текст #5
Идентификатор : 9
Формат : UTF-8
Идентификатор кодека : S_TEXT/UTF8
Идентификатор кодека/Информация : UTF-8 Plain Text
Язык : Spanish
Default : Нет
Forced : Нет

Меню
00:00:00.000 : en:00:00:00.000
00:06:14.708 : en:00:06:14.708
00:14:00.923 : en:00:14:00.923
00:19:29.585 : en:00:19:29.585
00:26:25.000 : en:00:26:25.000
00:31:46.488 : en:00:31:46.488
00:38:26.804 : en:00:38:26.804
00:42:27.920 : en:00:42:27.920
00:49:46.275 : en:00:49:46.275
00:55:07.638 : en:00:55:07.638
01:01:11.376 : en:01:01:11.376
01:06:21.561 : en:01:06:21.561
01:11:51.349 : en:01:11:51.349
01:22:34.533 : en:01:22:34.533
01:30:46.274 : en:01:30:46.274
01:38:12.220 : en:01:38:12.220

pb.wtf



Скачать Паркер через торрент http://i48.fastpic.ru/big/2013/0503/8b/cf95f5fe8a32ab0971a4838c3060188b.png Скачать фильм Паркер через торрент бесплантно в хорошем качестве Описание: Главный герой — вор, руководствующийся собственным моральным кодексом, но способный запросто отправить на тот ... 10 10 8
Info! Золотая раздача, скачанное не засчитывается.
Торрент: Зарегистрирован [2013-06-14 09:46] · скачан: 89 раз
Статус: √ проверено
Размер: 14.68 GB
Как cкачать? Как скачать Паркер через торрент | qTorrent

% Раздел Тема Автор DL S | L
Фильмы (Blu-ray, BD-Remux, HDDVD) [ 21.21 GB ] Паркер / Parker [2013 Blu-Ray 1080p] DUB [] bober100 Скачать
1 | 0
Фильмы [HD 720p, 1080p] (Хороший звук DUB, MVO) [ 9.58 GB ] Паркер / Parker [2013 BDRip 1080p] DUB 2xAVO Леонид Ильич Скачать
1 | 0
Фильмы 2016 [DVDrip, WEB-DLRip, HDrip] (DUB, MVO) [ 2.13 GB ] Рождение нации / The Birth of a Nation [2016 биография история BDRip] [MVO] killermax2013 Скачать
1 | 0
Фильмы 2016 [DVDrip, WEB-DLRip, HDrip] (DUB, MVO) [ 1.46 GB ] Папашина армия / Dad's Army [2016 Военный HDRip ] Cruzer Скачать
1 | 0
Иностранные мультфильмы [ 2.18 GB ] Отряд «Америка»: Всемирная полиция / Team America: World Police [2004 мультфильм BDRip-AVC] DVO potroks Скачать
1 | 0
Фильмы (Blu-ray, BD-Remux, HDDVD) [ 27.03 GB ] Сердце Ангела / Angel Heart [1987 BDRemux 1080p] Russian Mafia Скачать
1 | 0
Фильмы 2013 [DVDrip, WEB-DLRip, HDrip] [ 1.37 GB ] Адский бункер: Восстание спецназа / Outpost: Rise of the Spetsnaz [2013 HDRip многоголосый] _KaisiK_ Скачать
1 | 0


Последний раз редактировалось: Trava-HD (2013-06-14 11:52), всего редактировалось 1 раз

28-11-2019 20:33  

Отключить всю рекламу на сайте

14-06-2013 10:40 Паркер Скачать торрент  

Trava-HD
В семейство 4 поколения кодеков - MPEG4, входят много Видео кодеков. Ваш файл кодировался кодеком - AVC. Исправляем.
pb.wtf



14-06-2013 11:20 Паркер Скачать торрент  

аудио №3 укажите в тех. данныхpb.wtf



14-06-2013 11:52 Паркер Скачать торрент  

diletant писал(а):

аудио №3 укажите в тех. данных

ИСПРАВИЛpb.wtf



    Дорогой пользователь! Огромная просьба, поблагодарите релизера, оцените раздачу и оставьте свои комментарий, если Вы скачали Паркер через торрент бесплатно! Внесите свою лепту в развитие PiratBit!
    Комментировать посты могут только пользователи прошедшие не сложную регистрацию
    Показать сообщения:    

    Паркер через торрент
    Скачать бесплатно Паркер
    Паркер скачать торрент
    Паркер смотреть онлайн
    Cкачать фильм Паркер бесплатно
    Паркер скачать торрент в хорошем качестве
    Паркер смотреть онлайн бесплатно в хорошем качестве


    Вы не можете начинать темы
    Вы не можете отвечать на сообщения
    Вы не можете редактировать свои сообщения
    Вы не можете удалять свои сообщения
    Вы не можете голосовать в опросах
    Вы не можете прикреплять файлы к сообщениям
    Вы можете скачивать файлы