Достать ножи: Стеклянная луковица

MVO

Добыча

Дубляж

Уэнсдэй

1 сезон

Тор

Дубляж

13 клиническая

1 сезон

Жестокая ночь

MVO

Одни из нас

1 сезон

Deluxe

pack

Рекомендуем

30

Пиратка

ВАЖНО

ВАЖНО

Ghostwire

Пиратка

jed

RePack

nioh2

RePack

RDR2

RePack

NEED FOR SPEED™ PAYBACK

RePack

скачать торрент

Кинопоиск HD

Острые козырьки 6 сезон

6 сезон

FAR CRY 6

RePack

скачать торрент

Лицензия

скачать торрент

MVO

1

1 сезон

скачать торрент

1 сезон

скачать торрент

Лицензия

  

Шутки в сторону / De l'autre côté du périph (Давид Шарон / David Charhon) [ 2012 , Франция , комедия, криминал, детектив , BDRip 720p] Дубляж [ лицензия ]+Оригинал

Шутки в сторону через торрент pb.wtf

Качают: 1 [ 0 KB/s ]
Размер: 5.36 GB | Добавлен: 9 лет 7 мес. назад | Торрент скачан:100 раз
Смотреть онлайн | Скачать | Поддержите нас   

15-06-2013 05:50 Шутки в сторону Скачать торрент  

Шутки в сторону / De l'autre côté du périph


  • Год выпуска:2012
  • Страна: Франция
  • Жанр:комедия, криминал, детектив
  • Продолжительность: 01:34:44
  • Перевод:Профессиональный (полное дублирование)(лицензия)
  • Субтитры: Вшитые отключаемые
  • Язык субтитров: русский

    • Режиссер: Давид Шарон / David Charhon
    • Продюсер: Эрик Альтмайер / Eric Altmeyer, Николас Альтмайер / Nicolas Altmeyer
    • Сценарий:Давид Шарон / David Charhon, Реми Фур / Remy Four, Жюльен Уор / Julien War, Эрик Альтмайер / Eric Altmeyer, Николас Альтмайер / Nicolas Altmeyer

  • В ролях:Омар Си (Ousmane Diakhité), Лоран Лафитт (François Monge), Сабрина Уазани (Yasmine), Лионель Абелански (Daniel Cardinet), Юсеф Хаджди (Giovanni / Nabil), Максим Мотт (Van Gogh), Лео Леотье (Gérard), Андре Маркон (Chaligny), Забу Брайтман (Commissaire Morland), Патрик Боннель (Balard), Рош Лейбовичи (Patrick), Ребекка Азан (Laurence)
    • Описание:
      Усман, дерзкий коп из парижского пригорода, и Франсуа, амбициозный столичный полицейский, объединяют усилия в расследовании убийства жены большого чиновника. Усман и Франсуа - разные. Усман живет по законам комедий с Эдди Мерфи, Франсуа обожает Бельмондо в «Профессионале» и «Смертельное оружие». Но расхождение в киновкусах - ничто, когда на кону громкое разоблачение коррупции в самых верхах и, конечно, дружба! Один плюс один = команда, а шутки - в сторону!

  • Рейтинг
    kinopoisk.ru: 6.404 (3439)
    imdb.com: 5.80 (950)
    • Качество: BDRip 720p
    • Формат: MKV
    • Видео кодек: AVC
    • Аудио кодек: DTS
    • Видео: AVC, 1280x536 (2.40:1), 5086 kbps, 24 fps, 0,309 bpp
    • Аудио №1: русский / DTS / 5.1 / 48 kHz / 1510 kbps / 24 bit , 48 kHz
      Аудио №2: французский / DTS / 5.1 / 48 kHz / 1510 kbps / 16 bit , 48 kHz

    General
    Unique ID : 225427293626167170758945047973464636144 (0xA997B7AE9558310AAFF711440167FAF0)
    Complete name : D:ТорентыShutki.v.storonu.2012.BDRip.720p.mkv
    Format : Matroska
    Format version : Version 2
    File size : 5.36 GiB
    Duration : 1h 34mn
    Overall bit rate : 8 100 Kbps
    Encoded date : UTC 2013-06-14 17:36:23
    Writing application : mkvmerge v5.8.0 ('No Sleep / Pillow') built on Sep 2 2012 15:37:04
    Writing library : libebml v1.2.3 + libmatroska v1.3.0

    Video
    ID : 1
    Format : AVC
    Format/Info : Advanced Video Codec
    Format profile : [email protected]
    Format settings, CABAC : Yes
    Format settings, ReFrames : 5 frames
    Muxing mode : Header stripping
    Codec ID : V_MPEG4/ISO/AVC
    Duration : 1h 34mn
    Bit rate : 5 086 Kbps
    Width : 1 280 pixels
    Height : 536 pixels
    Display aspect ratio : 2.40:1
    Frame rate : 24.000 fps
    Color space : YUV
    Chroma subsampling : 4:2:0
    Bit depth : 8 bits
    Scan type : Progressive
    Bits/(Pixel*Frame) : 0.309
    Stream size : 3.26 GiB (61%)
    Title : De.L.Autre.Cote.Du.Periph.2012.FRENCH.720p.BluRay.x264-CMBHD
    Writing library : x264 core 130 r2273 b3065e6
    Encoding settings : cabac=1 / ref=5 / deblock=1:0:0 / analyse=0x3:0x133 / me=umh / subme=7 / psy=1 / psy_rd=1.00:0.00 / mixed_ref=1 / me_range=16 / chroma_me=1 / trellis=1 / 8x8dct=1 / cqm=0 / deadzone=21,11 / fast_pskip=0 / chroma_qp_offset=-2 / threads=18 / lookahead_threads=3 / sliced_threads=0 / nr=0 / decimate=1 / interlaced=0 / bluray_compat=0 / constrained_intra=0 / bframes=3 / b_pyramid=2 / b_adapt=1 / b_bias=0 / direct=1 / weightb=1 / open_gop=0 / weightp=2 / keyint=240 / keyint_min=24 / scenecut=40 / intra_refresh=0 / rc_lookahead=40 / rc=2pass / mbtree=1 / bitrate=5086 / ratetol=1.0 / qcomp=0.60 / qpmin=10 / qpmax=69 / qpstep=4 / cplxblur=20.0 / qblur=0.5 / ip_ratio=1.40 / aq=1:1.00
    Language : French
    Default : Yes
    Forced : Yes

    Audio #1
    ID : 2
    Format : DTS
    Format/Info : Digital Theater Systems
    Muxing mode : Header stripping
    Codec ID : A_DTS
    Duration : 1h 34mn
    Bit rate mode : Constant
    Bit rate : 1 510 Kbps
    Channel(s) : 6 channels
    Channel positions : Front: L C R, Side: L R, LFE
    Sampling rate : 48.0 KHz
    Bit depth : 24 bits
    Compression mode : Lossy
    Stream size : 1 023 MiB (19%)
    Title : DTS 5.1 @ 1536 kbps - Дубляж, BD RUS
    Language : Russian
    Default : Yes
    Forced : Yes

    Audio #2
    ID : 3
    Format : DTS
    Format/Info : Digital Theater Systems
    Muxing mode : Header stripping
    Codec ID : A_DTS
    Duration : 1h 34mn
    Bit rate mode : Constant
    Bit rate : 1 510 Kbps
    Channel(s) : 6 channels
    Channel positions : Front: L C R, Side: L R, LFE
    Sampling rate : 48.0 KHz
    Bit depth : 16 bits
    Compression mode : Lossy
    Delay relative to video : 11ms
    Stream size : 1 023 MiB (19%)
    Title : DTS 5.1 @ 1536 kbps
    Language : French
    Default : No
    Forced : No

    Text
    ID : 4
    Format : UTF-8
    Codec ID : S_TEXT/UTF8
    Codec ID/Info : UTF-8 Plain Text
    Language : Russian
    Default : Yes
    Forced : No

    Menu
    00:00:00.000 : en:00:00:00.000
    00:06:09.250 : en:00:06:09.250
    00:14:14.333 : en:00:14:14.333
    00:21:18.458 : en:00:21:18.458
    00:28:37.083 : en:00:28:37.083
    00:36:51.250 : en:00:36:51.250
    00:44:17.333 : en:00:44:17.333
    00:53:46.125 : en:00:53:46.125
    01:02:25.125 : en:01:02:25.125
    01:12:11.167 : en:01:12:11.167
    01:20:24.333 : en:01:20:24.333
    01:30:10.542 : en:01:30:10.542
    Сценарий: Давид Шарон / David Charhon, Реми Фур / Remy Four, Жюльен Уор / Julien War, Эрик Альтмайер / Eric Altmeyer, Николас Альтмайер / Nicolas Altmeyer
    Продюсер: Эрик Альтмайер / Eric Altmeyer, Николас Альтмайер / Nicolas Altmeyer
    Оператор: Ален Дюплантье / Alain Duplantier
    Композитор: Людовик Бурсе / Ludovic Bource

    Сборы в России: $1 321 054
    Сборы в мире: $24 774 264

    Мировая премьера: 19 декабря 2012
    Релиз на DVD: 17 июня 2013, «Новый Диск»
    Релиз на Blu-ray: 17 июня 2013, «Новый Диск»

    User Rating: 6.404 (3439)

    User Rating: 5.80 (950)


    Скриншоты
    © Оформление by Vetal



  • Скачать Шутки в сторону через торрент http://i47.fastpic.ru/big/2013/0615/d1/05b0720bcdac62e926113c6faf92c2d1.jpg Скачать, смотреть онлайн Шутки в сторону бесплантно в хорошем качестве Описание:Усман, дерзкий коп из парижского пригорода, и Франсуа, амбициозный столичный полицейский, объединяют усилия в расследовании ... 9.9 10 9
    Info! Золотая раздача, скачанное не засчитывается.
    Торрент: Зарегистрирован [2013-06-15 05:50] · скачан: 100 раз
    Статус: √ проверено
    Размер: 5.36 GB
    Как cкачать? Как скачать Шутки в сторону через торрент | UTorrent

    % Раздел Тема Автор DL S | L
    Фильмы (Blu-ray, BD-Remux, HDDVD) [ 24.94 GB ] Шутки в сторону / De l'autre côté du périph | DUB | 1080p Ворон Скачать
    1 | 1

    28-11-2019 20:33  


    Отключить вcю реклaмy на сайте, в т.ч. и в плеере онлайн просмотра!

      Дорогой пользователь! Огромная просьба, поблагодарите релизера, оцените раздачу и оставьте свои комментарий, если Вы скачали Шутки в сторону через торрент бесплатно!!
      Комментировать посты могут только пользователи прошедшие не сложную регистрацию
      Показать сообщения:    


      Шутки в сторону через торрент
      Скачать бесплатно Шутки в сторону
      Шутки в сторону скачать торрент
      Шутки в сторону смотреть онлайн
      Cкачать фильм Шутки в сторону бесплатно
      Шутки в сторону скачать торрент в хорошем качестве
      Шутки в сторону смотреть онлайн бесплатно в хорошем качестве
      Вы не можете начинать темы
      Вы не можете отвечать на сообщения
      Вы не можете редактировать свои сообщения
      Вы не можете удалять свои сообщения
      Вы не можете голосовать в опросах
      Вы не можете прикреплять файлы к сообщениям
      Вы можете скачивать файлы
      Шутки в сторону / De l'autre côté du périph [ 2012 , Франция , комедия, криминал, детектив , BDRip 720p] Дубляж [ лицензия ]+Оригинал смотреть онлайн, скачать торрент picoco.icu