Ссылка на приватное зеркало нашего сайта всего за 1$. Внимание количество ограничено!!!

2 сезон

iTunes

1 сезон

1

iTunes

iTunes

iTunes

1 сезон

RePack

30

ИГРА 18+

pack

ВАЖНО

!!Акция!!

Alien_RageХит недели

RePack

MK11
pack

Забери бонус

RePack

jed

!!Акция!!

Alien_Rage

RePack

fifa19

RePack

Assassins Creed: Odyssey

RePack

NEED FOR SPEED™ PAYBACK

4 сезон

9 сезон

Бесстыжие 9 сезон

Все сериалы

все сериалы на PB.wtf

RePack

FAR CRY 5
  

Пapкep / Раrkеr (Teйлop Хэкфoрд / Таylor Наckford) [2013, США, триллер, криминал, BDRip 1080p] Dub + MVO (Ukr) + AVO (Гаврилов) + VO (Яроцкий) + VO (Нурмухаметов) + Sub Rus, Eng + Original Eng pb.wtf

Пapкep через торрент pb.wtf

Размер: 20.1 GB | Добавлен: 7 лет 4 мес. назад | Торрент скачан:36 раз
Скачать  

15-06-2013 14:30 Пapкep Скачать торрент  

Паркер | Parker

Год выпуска: 2013
Страна: США
Жанр: триллер, криминал
Продолжительность: 01:58:40
Перевод:
  • Профессиональный (дублированный) | Blu-ray
  • Профессиональный (многоголосый закадровый) | Омикрон
  • Авторский (одноголосый закадровый) | Гаврилов
  • Одноголосый (закадровый) | Михаил Яроцкий(kyberpunk) | Ненормативная лексика
  • Одноголосый (закадровый) | Нурмухаметов
Субтитры: русские(voronine),английские(full,SDH,SDH-COLORED,Commentary)

Режиссер: Тейлор Хэкфорд / Taylor Hackford

Мировой рейтинг IMDB 6.10 (29 177)


В ролях: Джейсон Стэйтем, Дженнифер Лопез, Майкл Чиклис, Уенделл Пирс, Клифтон Коллинз мл., Бобби Каннавале, Пэтти ЛюПон, Карлос Карраско, Мика А. Хауптман, Эмма Бут

Описание: Главный герой - профессиональный вор, руководствующийся собственным моральным кодексом, но способный запросто отправить на тот свет любого, кто перейдет ему дорогу.

Качество: BDRip 1080p [HDMaNiAcS]
Формат: MKV
Видео кодек: AVC
Аудио кодек: AC3 | DTS
Видео: AVC, 1920x800, 15000 kbps,23.976 fps
  • Аудио 1: Russian: 48 kHz, DTS, 3/2 (L,C,R,l,r) + LFE ch, ~1536.00 kbps avg |Blu-ray|
  • Аудио 2: Ukrainian: 48 kHz, DTS, 3/2 (L,C,R,l,r) + LFE ch, ~1536 kbps avg |Омикрон|
  • Аудио 3: Russian: 48 kHz, DTS, 3/2 (L,C,R,l,r) + LFE ch, ~1536 kbps avg |Гаврилов|
  • Аудио 4: Russian: 48 kHz, DTS, 3/2 (L,C,R,l,r) + LFE ch, ~1536 kbps avg |Михаил Яроцкий|
  • Аудио 5: Russian: 48 kHz, DTS, 3/2 (L,C,R,l,r) + LFE ch, ~1536 kbps avg |Нурмухаметов|
  • Аудио 6: English: 48 kHz, DTS, 3/2 (L,C,R,l,r) + LFE ch, ~1536.00 kbps |Original|
  • Аудио 7: English: 48 kHz, AC3, 2/0 (L,R) ch, ~192.00 kbps avg |Commentary with Director Taylor Hackford|

x264 [info]: frame I:1351 Avg QP:13.76 size:265419
x264 [info]: frame P:48374 Avg QP:16.56 size:107247
x264 [info]: frame B:120988 Avg QP:17.55 size: 64471
x264 [info]: consecutive B-frames: 6.0% 8.7% 16.3% 16.9% 14.7% 34.6% 2.7%
encoded 170713 frames, 2.27 fps, 14996.03 kb/s
Українською мовою озвучено студією "Омікрон" на замовлення HURTOM.COM
Спасибо пользователям HURTOM.COM,что помогли проекту:Oliko_, 3ipbudax, 5E_koleco, aka_Sotona, Alien8, andrew4web, andrid, aonyshchenko, audt2009, Aussie, bandera77, bearer, Bob, bogdankozar, brizident, Bulba, bursak, cl124, CNeverDie, consul224, cyberprostir, cyclone2000, davose, deepfree, Deformal, Demetrios, denskipper, dimaty_, Dimka, dj_alek, dmitrykiev, Don Pedro, errno, FukashiMoariTakaru, GodSaveUkraine, gol_fm, graas, Gxost, Hako, Harismann, heihasi, Holy_Kadylo, IceKris, igor911, ihor72, Ilmarren, Ingvar, ischenkodv, jaguar_arx, Jenuk, Jenuk, Kapelynka, keloglan, Kirtoff, knedlyk, kred3, Kremin, ktw14, kucher, KulyaNazar, lerk, levitskas, Light-snake, loiknazar, Lubomyr, ludens, lutsko_k, lychvar, lynxnake, MadAnd, MarianB, Masanchick, Maters (Lutsk), MaugliUA, mihaluch2006, mik_king, MikeSmit, Mitrukhin, mkovalyk, morg, mova.org.ua, Muthafuka, nasnas, nassnass, nemos, nirvanka, noubase, Nydota, ok, okzdp, OLENKA1980, Oleshko, olfed111, olgak58, olgerdss, orest, orkosam, ortt11, OSCAR, ozm, panama58, patlatyj1000, pekodin, PerecKTO, piter7pen, poi, pouter, ppk21, professor, rakab, Rost3, RST, rudchenkos, sanj1957, Sehrg-Gut, semteacher, Sepoolka, SergoMozaic, SergSt, shtein, sicheslav, Sirko, Sirpent, Sirpent, Skochko, skuline, smindmax, Snuryus, somnambula, stalker_cv, StarWatchCat, strategic, Supa, sxander88, Syawa, Tanat13, Taras, TarasD, tarpyt, tartess, testUserAsd, thefir, tokar121, turba, UaMaxKh, uarenik, urshula, V_P_Staryk, vadimox, ValicV, vanami, vdim82, vecchio, Velizariy, Vettabat, vifilo, Vikk, virgilius, vitalijkichak, viter07, VovaVirus, waldi-hurtom, webars, Wivern, xbohdan, xfsthe, Xshot, yarik_ratnik, YaWrangler, yellow_man, yg, Yrshel76, zaika, Анастасійка, Андр1й, Вишняк Артем , Вірний, дяк, Зачіпка, Лексій, М_а_м_а_Й, Новенький, павло, Риф, Рідний простір, РоманМ, Сергій, Толік та Олік, Я
За перевод А. Гаврилова большое спасибо пользователям форума forum.hdtracker.org: SavineX, milocerd0v, shitman82, kinobbk, Brown15, rydanes, IgorNN, _MyxAmoP_, Role, Hattori Hanzo, dark1982, therox, KpucTo161, apollion, audiolubitel, dunhill200, lexal, Chistobaev, karantin66, ZeRoNe, chef&chef, nimph, maximus1099, Denis2251, LAVR, shtift, sawyer4, Pain_70, Xerman13, foxlight, vadamk, Letyoha3, Slimka, эвоки, carter64,Vimann, zork, Loki, Guyver, GaryH, feldeger, olegsoleg, fly32, BIMMER .
Перевод Михаила Яроцкого доступен, благодаря: mihey10 (+ сборка дорожки), MrRose, будулайроманов, Hannabar, farivan, kidman644, rikkibobbi, dikii.
Работа со звуком — perevodman.
General
Unique ID : 202246003365502763407124553283012530746 (0x982729D4AD0645C39CBA5DB5F26E123A)
Complete name : D:Parker.2013.1080p.BluRay.DTS.x264-Talian-.mkv
Format : Matroska
Format version : Version 2
File size : 20.1 GiB
Duration : 1h 58mn
Overall bit rate : 24.2 Mbps
Movie name : -Talian-
Encoded date : UTC 2013-06-15 08:04:18
Writing application : mkvmerge v5.7.0 ('The Whirlwind') built on Jul 8 2012 20:08:51
Writing library : libebml v1.2.3 + libmatroska v1.3.0
Video
ID : 1
Format : AVC
Format/Info : Advanced Video Codec
Format profile : High@L4.1
Format settings, CABAC : Yes
Format settings, ReFrames : 5 frames
Codec ID : V_MPEG4/ISO/AVC
Duration : 1h 58mn
Bit rate : 15.0 Mbps
Width : 1 920 pixels
Height : 800 pixels
Display aspect ratio : 2.40:1
Frame rate : 23.976 fps
Color space : YUV
Chroma subsampling : 4:2:0
Bit depth : 8 bits
Scan type : Progressive
Bits/(Pixel*Frame) : 0.407
Stream size : 12.0 GiB (60%)
Title : HDMaNiAcS
Writing library : x264 core 130 r2273 b3065e6
Encoding settings : cabac=1 / ref=5 / deblock=1:-3:-3 / analyse=0x3:0x113 / me=tesa / subme=11 / psy=1 / psy_rd=1.00:0.00 / mixed_ref=1 / me_range=32 / chroma_me=1 / trellis=2 / 8x8dct=1 / cqm=0 / deadzone=21,11 / fast_pskip=0 / chroma_qp_offset=-2 / threads=12 / lookahead_threads=1 / sliced_threads=0 / nr=0 / decimate=0 / interlaced=0 / bluray_compat=0 / constrained_intra=0 / bframes=6 / b_pyramid=2 / b_adapt=2 / b_bias=0 / direct=3 / weightb=1 / open_gop=0 / weightp=2 / keyint=250 / keyint_min=23 / scenecut=40 / intra_refresh=0 / rc_lookahead=90 / rc=2pass / mbtree=1 / bitrate=15000 / ratetol=1.0 / qcomp=0.60 / qpmin=0 / qpmax=69 / qpstep=4 / cplxblur=20.0 / qblur=0.5 / vbv_maxrate=40000 / vbv_bufsize=30000 / nal_hrd=none / ip_ratio=1.40 / aq=1:1.00
Language : English
Default : No
Forced : No
Audio #1
ID : 2
Format : DTS
Format/Info : Digital Theater Systems
Codec ID : A_DTS
Duration : 1h 58mn
Bit rate mode : Constant
Bit rate : 1 510 Kbps
Channel(s) : 6 channels
Channel positions : Front: L C R, Side: L R, LFE
Sampling rate : 48.0 KHz
Bit depth : 24 bits
Compression mode : Lossy
Stream size : 1.25 GiB (6%)
Title : DUB-Blu-ray
Language : Russian
Default : Yes
Forced : No
Audio #2
ID : 3
Format : DTS
Format/Info : Digital Theater Systems
Codec ID : A_DTS
Duration : 1h 58mn
Bit rate mode : Constant
Bit rate : 1 510 Kbps
Channel(s) : 6 channels
Channel positions : Front: L C R, Side: L R, LFE
Sampling rate : 48.0 KHz
Bit depth : 24 bits
Compression mode : Lossy
Stream size : 1.25 GiB (6%)
Title : MVO-Омикрон
Language : Ukrainian
Default : No
Forced : No
Audio #3
ID : 4
Format : DTS
Format/Info : Digital Theater Systems
Codec ID : A_DTS
Duration : 1h 58mn
Bit rate mode : Constant
Bit rate : 1 510 Kbps
Channel(s) : 6 channels
Channel positions : Front: L C R, Side: L R, LFE
Sampling rate : 48.0 KHz
Bit depth : 24 bits
Compression mode : Lossy
Stream size : 1.25 GiB (6%)
Title : AVO-Гаврилов
Language : Russian
Default : No
Forced : No
Audio #4
ID : 5
Format : DTS
Format/Info : Digital Theater Systems
Codec ID : A_DTS
Duration : 1h 58mn
Bit rate mode : Constant
Bit rate : 1 510 Kbps
Channel(s) : 6 channels
Channel positions : Front: L C R, Side: L R, LFE
Sampling rate : 48.0 KHz
Bit depth : 24 bits
Compression mode : Lossy
Stream size : 1.25 GiB (6%)
Title : VO-Михаил Яроцкий
Language : Russian
Default : No
Forced : No
Audio #5
ID : 6
Format : DTS
Format/Info : Digital Theater Systems
Codec ID : A_DTS
Duration : 1h 58mn
Bit rate mode : Constant
Bit rate : 1 510 Kbps
Channel(s) : 6 channels
Channel positions : Front: L C R, Side: L R, LFE
Sampling rate : 48.0 KHz
Bit depth : 24 bits
Compression mode : Lossy
Stream size : 1.25 GiB (6%)
Title : VO-Нурмухаметов
Language : Russian
Default : No
Forced : No
Audio #6
ID : 7
Format : DTS
Format/Info : Digital Theater Systems
Codec ID : A_DTS
Duration : 1h 58mn
Bit rate mode : Constant
Bit rate : 1 510 Kbps
Channel(s) : 6 channels
Channel positions : Front: L C R, Side: L R, LFE
Sampling rate : 48.0 KHz
Bit depth : 24 bits
Compression mode : Lossy
Stream size : 1.25 GiB (6%)
Title : Original
Language : English
Default : No
Forced : No
Audio #7
ID : 8
Format : AC-3
Format/Info : Audio Coding 3
Format profile : Dolby Digital
Mode extension : CM (complete main)
Format settings, Endianness : Big
Codec ID : A_AC3
Duration : 1h 58mn
Bit rate mode : Constant
Bit rate : 192 Kbps
Channel(s) : 2 channels
Channel positions : Front: L R
Sampling rate : 48.0 KHz
Bit depth : 16 bits
Compression mode : Lossy
Stream size : 163 MiB (1%)
Title : Commentary
Language : English
Default : No
Forced : No
Text #1
ID : 9
Format : UTF-8
Codec ID : S_TEXT/UTF8
Codec ID/Info : UTF-8 Plain Text
Title : Sub-voronine
Language : Russian
Default : No
Forced : No
Text #2
ID : 10
Format : UTF-8
Codec ID : S_TEXT/UTF8
Codec ID/Info : UTF-8 Plain Text
Title : Sub-full
Language : English
Default : No
Forced : No
Text #3
ID : 11
Format : UTF-8
Codec ID : S_TEXT/UTF8
Codec ID/Info : UTF-8 Plain Text
Title : Sub-SDH
Language : English
Default : No
Forced : No
Text #4
ID : 12
Format : UTF-8
Codec ID : S_TEXT/UTF8
Codec ID/Info : UTF-8 Plain Text
Title : Sub-SDH-COLORED
Language : English
Default : No
Forced : No
Text #5
ID : 13
Format : UTF-8
Codec ID : S_TEXT/UTF8
Codec ID/Info : UTF-8 Plain Text
Title : Sub-Commentary
Language : English
Default : No
Forced : No
Menu
00:00:00.000 : en:00:00:00.000
00:06:14.708 : en:00:06:14.708
00:14:00.923 : en:00:14:00.923
00:19:29.585 : en:00:19:29.585
00:26:25.000 : en:00:26:25.000
00:31:46.488 : en:00:31:46.488
00:38:26.804 : en:00:38:26.804
00:42:27.920 : en:00:42:27.920
00:49:46.275 : en:00:49:46.275
00:55:07.638 : en:00:55:07.638
01:01:11.376 : en:01:01:11.376
01:06:21.561 : en:01:06:21.561
01:11:51.349 : en:01:11:51.349
01:22:34.533 : en:01:22:34.533
01:30:46.274 : en:01:30:46.274
01:38:12.220 : en:01:38:12.220
Source vs Encode




pb.wtf



Скачать Пapкep через торрент http://i47.fastpic.ru/big/2013/0506/ef/8f89fd9d1fb57a150eb23aa08aa6e1ef.png Скачать фильм Пapкep через торрент бесплантно в хорошем качестве Описание: Главный герой - вор, руководствующийся собственным моральным кодексом, но способный запросто отправить на тот ... 5.5 10 2
Info! Золотая раздача, скачанное не засчитывается.
Торрент: Зарегистрирован [2013-06-15 14:30] · скачан: 36 раз
Статус: √ проверено
Размер: 20.1 GB
Как cкачать? Как скачать Пapкep через торрент | qTorrent

28-11-2019 20:33  

Отключить всю рекламу на сайте

15-06-2013 18:43 Пapкep Скачать торрент  

Когда полная версия будет, где они там трахаются в душе?pb.wtf



    Дорогой пользователь! Огромная просьба, поблагодарите релизера, оцените раздачу и оставьте свои комментарий, если Вы скачали Пapкep через торрент бесплатно! Внесите свою лепту в развитие PiratBit!
    Комментировать посты могут только пользователи прошедшие не сложную регистрацию
    Показать сообщения:    

    Пapкep через торрент
    Скачать бесплатно Пapкep
    Пapкep скачать торрент
    Пapкep смотреть онлайн
    Cкачать фильм Пapкep бесплатно
    Пapкep скачать торрент в хорошем качестве
    Пapкep смотреть онлайн бесплатно в хорошем качестве


    Вы не можете начинать темы
    Вы не можете отвечать на сообщения
    Вы не можете редактировать свои сообщения
    Вы не можете удалять свои сообщения
    Вы не можете голосовать в опросах
    Вы не можете прикреплять файлы к сообщениям
    Вы можете скачивать файлы