Доктор Стрэндж

Лицензия

Добыча

Дубляж

Дом дракона

1 сезон

Тор

Дубляж

В эфире

Дубляж

Там, где раки поют

MVO

Властелин колец

1 сезон

Ultimate

pack

Рекомендуем

30

Пиратка

ВАЖНО

ВАЖНО

Ghostwire

Пиратка

jed

RePack

nioh2

RePack

RDR2

RePack

NEED FOR SPEED™ PAYBACK

RePack

скачать торрент

Кинопоиск HD

Острые козырьки 6 сезон

6 сезон

FAR CRY 6

RePack

скачать торрент

Лицензия

скачать торрент

MVO

1

1 сезон

скачать торрент

1 сезон

скачать торрент

Лицензия

  

Принцесса Мононоке / Princess Mononoke / Mononoke Hime (Хаяо Миядзаки / Hayao Miyazaki) [1997, Япония, Приключения, фэнтези, драма, DVDRip] Дубляж

Принцесса Мононоке через торрент pb.wtf

Размер: 784 MB | Добавлен: 9 лет 5 мес. назад | Торрент скачан:122 раза
Смотреть онлайн | Скачать   

16-06-2013 09:25 Принцесса Мононоке Скачать торрент  

Принцесса Мононоке / Princess Mononoke / Mononoke Hime
Страна: Япония
Год выпуска: 1997
Жанр: Приключения, фэнтези, драма
Продолжительность: 02:07:54
Перевод: Профессиональный (дублированный)
Субтитры: Нет / Без хардсаба

Режиссер: Хаяо Миядзаки / Hayao Miyazaki

Описание: Юный принц Аситака, убив вепря, навлек на себя смертельное проклятие. Старая знахарка предсказала ему, что только он сам способен изменить свою судьбу. И отважный воин отправился в опасное путешествие. Так он оказался в загадочной стране, где люди под предводительством злой госпожи Эбоси воевали с обитателями леса: духами, демонами и гигантскими существами, каких Аситака раньше никогда не видел.
И была с ними принцесса Мононоке — повелительница зверей и дочь волчицы. Теперь судьба всех зависит только от одного воина — принца Аситака…
Фильм, поражающий своей неоднозначностью, в котором трудно разобраться кто из героев хороший, а кто плохой. Отрицательные герои встают на сторону добра, а положительные – полны внутренней ненависти, злобы.
Вечная борьба человека с природой ради собственной выгоды, героизм и предательство, любовь и ненависть, вражда и вновь зарождающиеся светлые чувства – всё смешалось в этом фантастическом фильме. Прекрасный полнометражный мультфильм для семейного просмотра, в котором взрослые почерпнут для себя мудрость восточной философии, а дети будут в восторге от захватывающих приключений.

Качество: DVDRip
Контейнер: AVI
Видео кодек: XviD
Аудио кодек: MP3
Видео: 624x344 (1.81:1), 25 fps, XviD build 50 ~719 kbps avg, 0.13 bit/pixel
Аудио: 48 kHz, MPEG Layer 3, 2 ch, ~128.00 kbps avg
Раздача от:
D:Мои рипы. Вторая частьPrincessa.Mononoke.1997.DVDRip.D.[YTN]_by_dexter_lex.avi
General
Complete name : D:Мои рипы. Вторая частьPrincessa.Mononoke.1997.DVDRip.D.[YTN]_by_dexter_lex.avi
Format : AVI
Format/Info : Audio Video Interleave
File size : 784 MiB
Duration : 2h 7mn
Overall bit rate : 857 Kbps
Writing application : VirtualDubMod 1.5.10.3 | www.virtualdub-fr.org || (build 2550/release)
Writing library : VirtualDubMod build 2550/release
Video #0
ID : 0
Format : MPEG-4 Visual
Format profile : Advanced [email protected]
Format settings, BVOP : 1
Format settings, QPel : No
Format settings, GMC : No warppoints
Format settings, Matrix : Custom
Codec ID : XVID
Codec ID/Hint : XviD
Duration : 2h 7mn
Bit rate : 719 Kbps
Width : 624 pixels
Height : 344 pixels
Display aspect ratio : 1.81:1
Frame rate : 25.000 fps
Color space : YUV
Chroma subsampling : 4:2:0
Bit depth : 8 bits
Scan type : Progressive
Compression mode : Lossy
Bits/(Pixel*Frame) : 0.134
Stream size : 658 MiB (84%)
Writing library : XviD 1.2.1 (UTC 2008-12-04)
Audio #1
ID : 1
Format : MPEG Audio
Format version : Version 1
Format profile : Layer 3
Codec ID : 55
Codec ID/Hint : MP3
Duration : 2h 7mn
Bit rate mode : Constant
Bit rate : 128 Kbps
Channel(s) : 2 channels
Sampling rate : 48.0 KHz
Compression mode : Lossy
Stream size : 117 MiB (15%)
Alignment : Aligned on interleaves
Interleave, duration : 40 ms (1.00 video frame)
Interleave, preload duration : 504 ms
Writing library : LAME3.99r
Encoding settings : -m s -V 4 -q 2 -lowpass 17 -b 128
http://multi-up.com/875864



Скачать Принцесса Мононоке через торрент http://i48.fastpic.ru/big/2013/0616/88/f905737b0a308b39888660f026b2fb88.png Скачать, смотреть онлайн Принцесса Мононоке бесплантно в хорошем качестве Описание: Юный принц Аситака, убив вепря, навлек на себя смертельное проклятие. Старая знахарка предсказала ему, что только он сам способен ... 8.6 10 10
Info! Золотая раздача, скачанное не засчитывается.
Торрент: Зарегистрирован [2013-06-16 09:25] · скачан: 122 раз
Статус: √ проверено
Размер: 784 MB
Как cкачать? Как скачать Принцесса Мононоке через торрент | UTorrent

28-11-2019 20:33  


Отключить вcю реклaмy на сайте, в т.ч. и в плеере онлайн просмотра!

    Дорогой пользователь! Огромная просьба, поблагодарите релизера, оцените раздачу и оставьте свои комментарий, если Вы скачали Принцесса Мононоке через торрент бесплатно!!
    Комментировать посты могут только пользователи прошедшие не сложную регистрацию
    Показать сообщения:    


    Принцесса Мононоке через торрент
    Скачать бесплатно Принцесса Мононоке
    Принцесса Мононоке скачать торрент
    Принцесса Мононоке смотреть онлайн
    Cкачать фильм Принцесса Мононоке бесплатно
    Принцесса Мононоке скачать торрент в хорошем качестве
    Принцесса Мононоке смотреть онлайн бесплатно в хорошем качестве
    Вы не можете начинать темы
    Вы не можете отвечать на сообщения
    Вы не можете редактировать свои сообщения
    Вы не можете удалять свои сообщения
    Вы не можете голосовать в опросах
    Вы не можете прикреплять файлы к сообщениям
    Вы можете скачивать файлы
    Принцесса Мононоке / Princess Mononoke / Mononoke Hime [1997, Япония, Приключения, фэнтези, драма, DVDRip] Дубляж смотреть онлайн, скачать торрент picoco.icu