Мега распродажа FORZA HORIZON 4 ULTIMATE+ВСЕ DLC+ОНЛАЙН всего за 499р. 349 руб. (супер цена). Внимание количество ограничено!!!

iTunes

1+1

iTunes

мы

iTunes

1

1 сезон

Чернобыль

1 сезон

Ральф против интернета

Лицензия

ПШазам

8 сезон

Игра престолов

Лицензия

30
pack

ВАЖНО

!!Акция!!

Alien_RageХит недели

RePack

Resident Evil 21

ИГРА 18+

pack

RePack

Metro:Exodus

!!Акция!!

Alien_Rage

RePack

fifa19

RePack

Assassins Creed: Odyssey

RePack

NEED FOR SPEED™ PAYBACK

3 сезон

9 сезон

Бесстыжие 9 сезон

Все сериалы

все сериалы на PB.wtf

RePack

FAR CRY 5
Ребята, катастрофически не хватает 2730р. для оплаты серверов за ИЮНЬ (всвязи с блокировками трафик упал в 3 раза), 1-2р., выручайте.
  

Мертвые пташки / Dead Birds (Алекс Тернер / Alex Turner) [2004 г., ужасы, триллер, вестерн, DVDRip-AVC] MVO + Original Eng pb.wtf

Мертвые пташки через торрент pb.wtf

Размер: 1.4 GB | Добавлен: 6 лет 1 мес. назад | Торрент скачан:73 раза
Скачать  

16-06-2013 17:03 Мертвые пташки Скачать торрент  

Мертвые пташки/ Dead Birds

Год выпуска: 2004
Страна: США
Жанр: ужасы, триллер, вестерн,
Продолжительность: 1:27:19
Перевод: Профессиональный многоголосый, Лицензия

Режиссер: Алекс Тернер / Alex Turner

В ролях: Асайя Вашингтон, Генри Томас, Майкл Шеннон, Марк Бун Джуниор, Мыоз Уотсон, Ники Линн Ококс, Патрик Фьюджит,Описание:
Америка, XIX век. В стране бушует гражданская война, а на войну, известно, списать можно многое. Примерно так думали несколько солдат, решивших воспользоваться всеобщим хаосом и ограбить банк. Налет удается, но Фортуна так переменчива.

Остановившись переждать непогоду в заброшенном плантаторском доме, герои и не подозревали, что потревожили зловещие потусторонние силы, обитающие в его стенах. Переступив порог одержимого призраками особняка, они сами захлопнули дверцу ловушки, всякому угодившему в которую грозит неминуемая, страшная гибель. И это еще не все.

Качество: DVDRip- AVC
Формат: MKV
Видео кодек: H.264
Аудио кодек: AC3
Видео: ~ 720x560 ~25.00fps ~1 462 Kbps
Аудио#1: ~AC-3 at 384 Кбит/сек 6 канала(ов), 48,0 КГц (Русский)
Аудио#2: ~AC-3 at 448 Кбит/сек 6 канала(ов), 48,0 КГц (Английский)

Скриншоты
скриншот  скриншот  скриншот  
General
Unique ID : 243181875343001470343378499750641272302 (0xB6F320251011F926BCEBAFF3CA4805EE)
Complete name : E:ЗагрузкаDead birds.mkv
Format : Matroska
Format version : Version 1
File size : 1.40 GiB
Duration : 1h 27mn
Overall bit rate : 2 297 Kbps
Encoded date : UTC 2009-02-28 18:54:41
Writing application : mkvmerge v2.2.0 ('Turn It On Again') built on Mar 4 2008 12:58:26
Writing library : libebml v0.7.7 + libmatroska v0.8.1

Video
ID : 1
Format : AVC
Format/Info : Advanced Video Codec
Format profile : High@L3.1
Format settings, CABAC : Yes
Format settings, ReFrames : 8 frames
Codec ID : V_MPEG4/ISO/AVC
Duration : 1h 27mn
Bit rate : 1 462 Kbps
Width : 720 pixels
Height : 560 pixels
Display aspect ratio : 1.85:1
Original display aspect ratio : 1.286
Frame rate mode : Constant
Frame rate : 25.000 fps
Color space : YUV
Chroma subsampling : 4:2:0
Bit depth : 8 bits
Scan type : Progressive
Bits/(Pixel*Frame) : 0.145
Stream size : 887 MiB (62%)
Writing library : x264 core 66 r1114M a933a3e
Encoding settings : cabac=1 / ref=8 / deblock=1:-1:-1 / analyse=0x3:0x113 / me=umh / subme=7 / psy_rd=1.0:0.0 / mixed_ref=1 / me_range=16 / chroma_me=1 / trellis=2 / 8x8dct=1 / cqm=0 / deadzone=21,11 / chroma_qp_offset=-2 / threads=6 / nr=0 / decimate=1 / mbaff=0 / bframes=3 / b_pyramid=0 / b_adapt=2 / b_bias=0 / direct=3 / wpredb=1 / keyint=250 / keyint_min=25 / scenecut=40(pre) / rc=2pass / bitrate=1462 / ratetol=1.0 / qcomp=0.60 / qpmin=10 / qpmax=51 / qpstep=4 / cplxblur=20.0 / qblur=0.5 / vbv_maxrate=17500 / vbv_bufsize=14000 / ip_ratio=1.40 / pb_ratio=1.30 / aq=1:1.00
Language : English
Default : Yes
Forced : No

Audio #1
ID : 2
Format : AC-3
Format/Info : Audio Coding 3
Mode extension : CM (complete main)
Format settings, Endianness : Big
Codec ID : A_AC3
Duration : 1h 27mn
Bit rate mode : Constant
Bit rate : 384 Kbps
Channel(s) : 6 channels
Channel positions : Front: L C R, Side: L R, LFE
Sampling rate : 48.0 KHz
Bit depth : 16 bits
Compression mode : Lossy
Stream size : 240 MiB (17%)
Language : Russian
Default : Yes
Forced : No

Audio #2
ID : 3
Format : AC-3
Format/Info : Audio Coding 3
Mode extension : CM (complete main)
Format settings, Endianness : Big
Codec ID : A_AC3
Duration : 1h 27mn
Bit rate mode : Constant
Bit rate : 448 Kbps
Channel(s) : 6 channels
Channel positions : Front: L C R, Side: L R, LFE
Sampling rate : 48.0 KHz
Bit depth : 16 bits
Compression mode : Lossy
Stream size : 280 MiB (20%)
Language : English
Default : No
Forced : No



pb.wtf



Скачать Мертвые пташки через торрент http://pic.kartinco.top/images/2/sl2kcle4fu.jpg Скачать фильм Мертвые пташки через торрент бесплантно в хорошем качестве Описание: Америка, XIX век. В стране бушует гражданская война, а на войну, известно, списать можно многое. Примерно так думали несколько ... 9.1 10 8
Info! Золотая раздача, скачанное не засчитывается.
Торрент: Зарегистрирован [2013-06-16 17:03] · скачан: 73 раз
Статус: √ проверено
Размер: 1.4 GB
Как cкачать? Как скачать Мертвые пташки через торрент | qTorrent



Последний раз редактировалось: Alex_E (2013-06-17 15:47), всего редактировалось 7 раз(а)


>> Регистрируемся здесь <<






Отзывы и комментарии о схеме читаем и пишем здесь: ---> Отзывы и комментарии о схеме

Новые благодарочки в телеграм довольных пользователей:
скриншот   скриншот   скриншот   скриншот   скриншот

16-06-2013 18:05 Мертвые пташки Скачать торрент  

Alex_E

Цитата:

1. Заголовок

1.1 Общий вид:

Название на русском / Название на оригинале (режиссер) [год, жанр, качество, перевод]

https://piratbit.cc/topic/58128/

Alex_E писал(а):

Качество: DVDRip
Формат: MKV
Видео кодек: XviD
Аудио кодек: AC3
Видео: ~ 720x560~ 1024 x 560~ 25.00fps ~1.4 Мбит/сек

Вот так сюрприз..вы то сами знаете что заливали?
Для начала
Добавьте MediaIfo
http://pb.wtf/topic/29/
и в лс скиньте ссылку откуда качали тему.

Скриншоты должны быть представлены в виде превью, пере залейте скриншоты на другой хостинг
Список рекомендованных хостингов для заливки скриншотов
http://pic.kartinco.top
http://fastpic.ru
https://piratbit.top/goo.php?url=https://piratbit.top/goo.php?url=http://imageban.ru
http://www.imagebam.com
http://firepic.org
Запрещено заливать скриншоты на фотохостинги с оплатой за клики!
http://i46.fastpic.ru/big/2013/0616/a0/eb6a4257382a79b7f226387f5e47b7a0.png тег не закрыт поправьте.
Dead Birds / Мертвые пташки (Алекс Тернер) [2004 г., ужасы, триллер, вестерн, DVDRip- AVC , Профессиональный многоголосый, Лицензия]
В названии и в самой теме указывать качество обязательно я добавил на будущее учтите и название самой темы тоже начинаем с начало на русском потом на оригинале.
Видео:
размер кадра (в пикселях), битрейт видео (kbps), частота смены кадра (fps), Бит/(Пиксели*Кадры) по желанию
pb.wtf





Последний раз редактировалось: Ворон (2013-06-17 16:01), всего редактировалось 2 раз(а)

21-02-2016 05:44 Мертвые пташки Скачать торрент  

Скорости дайте пожалуйстаpb.wtf



    Дорогой пользователь! Огромная просьба, поблагодарите релизера, оцените раздачу и оставьте свои комментарий, если Вы скачали Мертвые пташки через торрент бесплатно! Внесите свою лепту в развитие PiratBit!
    Комментировать посты могут только пользователи прошедшие не сложную регистрацию
    Показать сообщения:    

    Мертвые пташки через торрент
    Скачать бесплатно Мертвые пташки
    Мертвые пташки скачать торрент
    Мертвые пташки смотреть онлайн
    Cкачать фильм Мертвые пташки бесплатно
    Мертвые пташки скачать торрент в хорошем качестве
    Мертвые пташки смотреть онлайн бесплатно в хорошем качестве


    Вы не можете начинать темы
    Вы не можете отвечать на сообщения
    Вы не можете редактировать свои сообщения
    Вы не можете удалять свои сообщения
    Вы не можете голосовать в опросах
    Вы не можете прикреплять файлы к сообщениям
    Вы можете скачивать файлы