Доктор Стрэндж

Лицензия

Добыча

Дубляж

Дом дракона

1 сезон

Тор

Дубляж

В эфире

Дубляж

Там, где раки поют

MVO

Властелин колец

1 сезон

Ultimate

pack

Рекомендуем

30

Пиратка

ВАЖНО

ВАЖНО

Ghostwire

Пиратка

jed

RePack

nioh2

RePack

RDR2

RePack

NEED FOR SPEED™ PAYBACK

RePack

скачать торрент

Кинопоиск HD

Острые козырьки 6 сезон

6 сезон

FAR CRY 6

RePack

скачать торрент

Лицензия

скачать торрент

MVO

1

1 сезон

скачать торрент

1 сезон

скачать торрент

Лицензия

  

Принцесса Мононоке / Princess Mononoke / Mononoke Hime (Хаяо Миядзаки / Hayao Miyazaki) [1997, Япония, Приключения, фэнтези, драма, DVDRip] Дубляж

Принцесса Мононоке через торрент pb.wtf

Размер: 1.46 GB | Добавлен: 9 лет 5 мес. назад | Торрент скачан:323 раза
Смотреть онлайн | Скачать   

17-06-2013 06:18 Принцесса Мононоке Скачать торрент  

Принцесса Мононоке / Princess Mononoke / Mononoke Hime
Страна: Япония
Год выпуска: 1997
Жанр: Приключения, фэнтези, драма
Продолжительность: 02:07:54
Перевод: Профессиональный (дублированный)
Субтитры: Нет / Без хардсаба

Режиссер: Хаяо Миядзаки / Hayao Miyazaki

Описание: Юный принц Аситака, убив вепря, навлек на себя смертельное проклятие. Старая знахарка предсказала ему, что только он сам способен изменить свою судьбу. И отважный воин отправился в опасное путешествие. Так он оказался в загадочной стране, где люди под предводительством злой госпожи Эбоси воевали с обитателями леса: духами, демонами и гигантскими существами, каких Аситака раньше никогда не видел.
И была с ними принцесса Мононоке — повелительница зверей и дочь волчицы. Теперь судьба всех зависит только от одного воина — принца Аситака…
Фильм, поражающий своей неоднозначностью, в котором трудно разобраться кто из героев хороший, а кто плохой. Отрицательные герои встают на сторону добра, а положительные – полны внутренней ненависти, злобы.
Вечная борьба человека с природой ради собственной выгоды, героизм и предательство, любовь и ненависть, вражда и вновь зарождающиеся светлые чувства – всё смешалось в этом фантастическом фильме. Прекрасный полнометражный мультфильм для семейного просмотра, в котором взрослые почерпнут для себя мудрость восточной философии, а дети будут в восторге от захватывающих приключений.

Качество: DVDRip
Контейнер: AVI
Видео кодек: XviD
Аудио кодек: AC3
Видео: 688x384 (1.79:1), 25 fps, XviD build 50 ~1433 kbps avg, 0.22 bit/pixel
Аудио: 48 kHz, AC3 Dolby Digital, 2/0 (L,R) ch, ~192 kbps
Раздача от:
D:Princessa.Mononoke.1997.DVDRip.D.1.45Gb.[YTN]_by_dexter_lex.avi
General
Complete name : D:Princessa.Mononoke.1997.DVDRip.D.1.45Gb.[YTN]_by_dexter_lex.avi
Format : AVI
Format/Info : Audio Video Interleave
File size : 1.46 GiB
Duration : 2h 7mn
Overall bit rate : 1 635 Kbps
Writing application : VirtualDubMod 1.5.10.3 | www.virtualdub-fr.org || (build 2550/release)
Writing library : VirtualDubMod build 2550/release
Video #0
ID : 0
Format : MPEG-4 Visual
Format profile : Advanced [email protected]
Format settings, BVOP : 1
Format settings, QPel : No
Format settings, GMC : No warppoints
Format settings, Matrix : Custom
Codec ID : XVID
Codec ID/Hint : XviD
Duration : 2h 7mn
Bit rate : 1 433 Kbps
Width : 688 pixels
Height : 384 pixels
Display aspect ratio : 1.79:1
Frame rate : 25.000 fps
Color space : YUV
Chroma subsampling : 4:2:0
Bit depth : 8 bits
Scan type : Progressive
Compression mode : Lossy
Bits/(Pixel*Frame) : 0.217
Stream size : 1.28 GiB (88%)
Writing library : XviD 1.2.1 (UTC 2008-12-04)
Audio #1
ID : 1
Format : AC-3
Format/Info : Audio Coding 3
Mode extension : CM (complete main)
Format settings, Endianness : Big
Codec ID : 2000
Duration : 2h 7mn
Bit rate mode : Constant
Bit rate : 192 Kbps
Channel(s) : 2 channels
Channel positions : Front: L R
Sampling rate : 48.0 KHz
Bit depth : 16 bits
Compression mode : Lossy
Stream size : 176 MiB (12%)
Alignment : Split accross interleaves
Interleave, duration : 40 ms (1.00 video frame)
Interleave, preload duration : 500 ms
http://multi-up.com/876160



Скачать Принцесса Мононоке через торрент http://i48.fastpic.ru/big/2013/0616/88/f905737b0a308b39888660f026b2fb88.png Скачать, смотреть онлайн Принцесса Мононоке бесплантно в хорошем качестве Описание: Юный принц Аситака, убив вепря, навлек на себя смертельное проклятие. Старая знахарка предсказала ему, что только он сам способен ... 10 10 11
Info! Золотая раздача, скачанное не засчитывается.
Торрент: Зарегистрирован [2013-06-17 06:18] · скачан: 323 раз
Статус: √ проверено
Размер: 1.46 GB
Как cкачать? Как скачать Принцесса Мононоке через торрент | UTorrent

28-11-2019 20:33  


Отключить вcю реклaмy на сайте, в т.ч. и в плеере онлайн просмотра!

    Дорогой пользователь! Огромная просьба, поблагодарите релизера, оцените раздачу и оставьте свои комментарий, если Вы скачали Принцесса Мононоке через торрент бесплатно!!
    Комментировать посты могут только пользователи прошедшие не сложную регистрацию
    Показать сообщения:    


    Принцесса Мононоке через торрент
    Скачать бесплатно Принцесса Мононоке
    Принцесса Мононоке скачать торрент
    Принцесса Мононоке смотреть онлайн
    Cкачать фильм Принцесса Мононоке бесплатно
    Принцесса Мононоке скачать торрент в хорошем качестве
    Принцесса Мононоке смотреть онлайн бесплатно в хорошем качестве
    Вы не можете начинать темы
    Вы не можете отвечать на сообщения
    Вы не можете редактировать свои сообщения
    Вы не можете удалять свои сообщения
    Вы не можете голосовать в опросах
    Вы не можете прикреплять файлы к сообщениям
    Вы можете скачивать файлы
    Принцесса Мононоке / Princess Mononoke / Mononoke Hime [1997, Япония, Приключения, фэнтези, драма, DVDRip] Дубляж смотреть онлайн, скачать торрент picoco.icu