Ссылка на приватное зеркало нашего сайта всего за 1$. Внимание количество ограничено!!!

2 сезон

iTunes

1 сезон

1

iTunes

iTunes

iTunes

1 сезон

RePack

30

ИГРА 18+

pack

ВАЖНО

!!Акция!!

Alien_RageХит недели

RePack

MK11
pack

Забери бонус

RePack

jed

!!Акция!!

Alien_Rage

RePack

fifa19

RePack

Assassins Creed: Odyssey

RePack

NEED FOR SPEED™ PAYBACK

4 сезон

9 сезон

Бесстыжие 9 сезон

Все сериалы

все сериалы на PB.wtf

RePack

FAR CRY 5
  

Не грози южному централу, попивая сок у себя в квартале / Don't Be a Menace to South Central (Пэрис Барклай / Paris Barclay) [1996, США, Комедия, BDRip 1080p] [Театральная версия / R-Rated] MVO West Video + AVO Д.Пучков + Original Eng + Subs pb.wtf

Не грози южному централу, попивая сок у себя в квартале через торрент pb.wtf

Размер: 7.95 GB | Добавлен: 7 лет 4 мес. назад | Торрент скачан:753 раза
Скачать  

17-06-2013 19:09 Не грози южному централу, попивая сок у себя в квартале Скачать торрент  

Не грози южному централу, попивая сок у себя в квартале / Don't Be a Menace to South Central While Drinking Your Juice in the Hood


  • Год выпуска:1996
  • Страна: США
  • Жанр:комедия, криминал
  • Продолжительность: 01:29:26
  • Перевод:Профессиональный (многоголосый, закадровый)+Авторский (Гоблинa)
  • Cубтитры: русские

    • Режиссер: Пэрис Барклай / Paris Barclay
    • Продюсер: Эрик Л. Голд / Eric L. Gold, Кинен Айвори Уайанс / Keenen Ivory Wayans, Марк Бёрг / Mark Burg, Дэн Дженетти / Dan Genetti, Кэрри Морроу / Carrie Morrow
    • Сценарий:Шон Уайанс / Shawn Wayans, Марлон Уайанс / Marlon Wayans, Фил Боман / Phil Beauman

  • В ролях:Шон Уайанс (Ashtray), Марлон Уайанс (Loc Dog), Трэйси Черелл Джонс (Dashiki), Крис Спенсер (Preach), Сули МакКалло (Crazy Legs), Даррел Хит (Toothpick), Хелен Мартин (Loc Dog's Grandma), Айзиа Барнс (Doo Rag), Ламард Дж. Тейт (Ashtray's Father), Кинен Айвори Уайанс (Mailman), Кейт Моррис (Dave the Crackhead), Крэйг Уайанс (Thug #1)
    • Описание:
      Молодой афроамериканец по прозвищу Пепельница переезжает в Лос-Анджелес со своим отцом и бабушкой. Пепельница гордится тем, что они с отцом выглядят ровесниками, это, по его мнению, «очень круто». Гордится он и своей бабушкой, которая в свои-то преклонные годы покуривает и не стесняется крепких словечек.
      Вскоре Пепельница знакомится со своим кузеном по прозвищу Цепной Пес. Этот парень - гангстер, в его личном арсенале не только пистолеты и автомат, но и термоядерная боеголовка - «для самозащиты». Пепельница должен выбрать свой дальнейший путь в жизни: он может быть «просто хорошим чернокожим» или стать «опасным чернокожим», примкнув к банде своего кузена.

  • Рейтинг
    kinopoisk.ru: 7.240 (31 662)
    imdb.com: 6.40 (25 082)
    MPAA: R - Лицам до 17 лет обязательно присутствие взрослого
    • Качество: BDRip 1080p
    • Формат: MKV
    • Видео кодек: AVC
    • Аудио кодек: AC3
    • Видео: 1920x1080 (16:9), 11585 kbps, 23,976 fps, 0,233 bpp
    • Аудио №1: русский / AC3 / 5.1 / 48 kHz / 384 kbps / 16 bit ||
      Аудио №2: русский / AC3 / 5.1 / 48 kHz / 448 kbps / 16 bit ||
      Аудио №3: английский / AC3 / 5.1 / 48 kHz / 384 kbps / 16 bit

    General
    Unique ID : 195291701556006683927876045260718410071 (0x92EBD0478BC4AD3D9233FBD2EA450957)
    Complete name : D:ТорентыDon't Be a Menace to South Central [Не грози южному централу] (1996) 1920x1080 BDRip by -=mallaigne=- RusEngSubsChpt.mkv
    Format : Matroska
    Format version : Version 2
    File size : 7.95 GiB
    Duration : 1h 29mn
    Overall bit rate : 12.7 Mbps
    Encoded date : UTC 2011-11-03 16:22:44
    Writing application : mkvmerge v5.0.1 ('Es ist Sommer') built on Oct 9 2011 11:55:43
    Writing library : libebml v1.2.2 + libmatroska v1.3.0

    Video
    ID : 1
    Format : AVC
    Format/Info : Advanced Video Codec
    Format profile : High@L4.1
    Format settings, CABAC : Yes
    Format settings, ReFrames : 4 frames
    Codec ID : V_MPEG4/ISO/AVC
    Duration : 1h 29mn
    Bit rate : 11.6 Mbps
    Width : 1 920 pixels
    Height : 1 080 pixels
    Display aspect ratio : 16:9
    Frame rate : 23.976 fps
    Color space : YUV
    Chroma subsampling : 4:2:0
    Bit depth : 8 bits
    Scan type : Progressive
    Bits/(Pixel*Frame) : 0.233
    Stream size : 7.03 GiB (88%)
    Writing library : x264 core 119 r2106 07efeb4
    Encoding settings : cabac=1 / ref=4 / deblock=1:-3:-3 / analyse=0x3:0x113 / me=umh / subme=11 / psy=1 / psy_rd=1.00:0.15 / mixed_ref=1 / me_range=32 / chroma_me=1 / trellis=2 / 8x8dct=1 / cqm=0 / deadzone=21,11 / fast_pskip=0 / chroma_qp_offset=-3 / threads=12 / sliced_threads=0 / nr=0 / decimate=0 / interlaced=0 / bluray_compat=0 / constrained_intra=0 / bframes=7 / b_pyramid=2 / b_adapt=2 / b_bias=0 / direct=3 / weightb=1 / open_gop=0 / weightp=2 / keyint=250 / keyint_min=23 / scenecut=40 / intra_refresh=0 / rc=2pass / mbtree=0 / bitrate=11585 / ratetol=1.0 / qcomp=0.60 / qpmin=0 / qpmax=69 / qpstep=4 / cplxblur=20.0 / qblur=0.5 / ip_ratio=1.40 / pb_ratio=1.30 / aq=1:1.00
    Language : English
    Default : Yes
    Forced : No

    Audio #1
    ID : 2
    Format : AC-3
    Format/Info : Audio Coding 3
    Mode extension : CM (complete main)
    Codec ID : A_AC3
    Duration : 1h 29mn
    Bit rate mode : Constant
    Bit rate : 384 Kbps
    Channel(s) : 6 channels
    Channel positions : Front: L C R, Side: L R, LFE
    Sampling rate : 48.0 KHz
    Bit depth : 16 bits
    Compression mode : Lossy
    Stream size : 246 MiB (3%)
    Title : MVO AC3 6ch 384kbps (R5)
    Language : Russian
    Default : Yes
    Forced : No

    Audio #2
    ID : 3
    Format : AC-3
    Format/Info : Audio Coding 3
    Mode extension : CM (complete main)
    Codec ID : A_AC3
    Duration : 1h 29mn
    Bit rate mode : Constant
    Bit rate : 448 Kbps
    Channel(s) : 6 channels
    Channel positions : Front: L C R, Side: L R, LFE
    Sampling rate : 48.0 KHz
    Bit depth : 16 bits
    Compression mode : Lossy
    Stream size : 287 MiB (4%)
    Title : AVO AC3 6ch 448kbps (Д.Пучков)
    Language : Russian
    Default : No
    Forced : No

    Audio #3
    ID : 4
    Format : AC-3
    Format/Info : Audio Coding 3
    Mode extension : CM (complete main)
    Codec ID : A_AC3
    Duration : 1h 29mn
    Bit rate mode : Constant
    Bit rate : 384 Kbps
    Channel(s) : 6 channels
    Channel positions : Front: L C R, Side: L R, LFE
    Sampling rate : 48.0 KHz
    Bit depth : 16 bits
    Compression mode : Lossy
    Stream size : 246 MiB (3%)
    Title : Original AC3 6ch 384kbps
    Language : English
    Default : No
    Forced : No

    Text #1
    ID : 5
    Format : UTF-8
    Codec ID : S_TEXT/UTF8
    Codec ID/Info : UTF-8 Plain Text
    Title : R5
    Language : Russian
    Default : Yes
    Forced : No

    Text #2
    ID : 6
    Format : UTF-8
    Codec ID : S_TEXT/UTF8
    Codec ID/Info : UTF-8 Plain Text
    Title : Д.Пучков
    Language : Russian
    Default : No
    Forced : No

    Text #3
    ID : 7
    Format : UTF-8
    Codec ID : S_TEXT/UTF8
    Codec ID/Info : UTF-8 Plain Text
    Language : English
    Default : No
    Forced : No

    Menu
    00:00:00.000 : en:Living in the Hood
    00:09:19.025 : en:I'll Suck Your Dick Man
    00:12:44.998 : en:Cousin Loc Dog
    00:19:00.339 : en:That's Dashiki
    00:26:09.735 : en:Forties & 9's
    00:31:05.797 : en:Old Grangster Grandma
    00:36:35.460 : en:Test Drivers
    00:40:58.489 : en:Kinky With Kool-Aid
    00:48:38.415 : en:Arrested for Being Black
    00:53:32.476 : en:Playing Po'Nopoly
    00:56:08.465 : en:Porch Dreams
    01:02:25.108 : en:Crazy Legs
    01:09:05.341 : en:That's Some Chronic!
    01:12:58.040 : en:Getting Crazy
    01:17:27.142 : en:Drive by
    • Сцена с Маликом пародирует фильм «Высшее образование». Героя Омара Эппса там также звали Малик.
    Сценарий: Шон Уайанс / Shawn Wayans, Марлон Уайанс / Marlon Wayans, Фил Боман / Phil Beauman
    Продюсер: Эрик Л. Голд / Eric L. Gold, Кинен Айвори Уайанс / Keenen Ivory Wayans, Марк Бёрг / Mark Burg, Дэн Дженетти / Dan Genetti, Кэрри Морроу / Carrie Morrow
    Оператор: Русс Брандт / Russ Brandt
    Композитор: Джон Барнс / John Barnes

    Сборы в США: $20 109 115

    Мировая премьера: 12 января 1996


    Скриншоты
    © Оформление by Vetalpb.wtf



  • Скачать Не грози южному централу, попивая сок у себя в квартале через торрент http://i6.imageban.ru/out/2013/06/17/95edaacab3321a7c1ef1c324c032e5e0.png Скачать фильм Не грози южному централу, попивая сок у себя в квартале через торрент бесплантно в хорошем качестве Описание:Молодой афроамериканец по прозвищу Пепельница переезжает в Лос-Анджелес со своим отцом и бабушкой. Пепельница гордится тем, что ... 9.9 10 26
    Info! Золотая раздача, скачанное не засчитывается.
    Торрент: Зарегистрирован [2013-06-17 19:09] · скачан: 753 раз
    Статус: √ проверено
    Размер: 7.95 GB
    Как cкачать? Как скачать Не грози южному централу, попивая сок у себя в квартале через торрент | qTorrent

    28-11-2019 20:33  

    Отключить всю рекламу на сайте

    17-06-2013 19:52 Не грози южному централу, попивая сок у себя в квартале Скачать торрент  

    помню помню.под плюшки самое то чтоб поржать!pb.wtf



    18-06-2013 07:08 Не грози южному централу, попивая сок у себя в квартале Скачать торрент  

    Супер классика.Рекомендую.Спасибо раздающему!!!pb.wtf



    18-06-2013 10:04 Не грози южному централу, попивая сок у себя в квартале Скачать торрент  

    Хорошая комедия. Таких сейчас не снимают.pb.wtf



    18-06-2013 16:22 Не грози южному централу, попивая сок у себя в квартале Скачать торрент  

    jek77786 писал(а):

    помню помню.под плюшки самое то чтоб поржать!

    Да там и без плюше поржать можно.pb.wtf



    22-11-2013 12:51 Не грози южному централу, попивая сок у себя в квартале Скачать торрент  

    jek77786 писал(а):

    помню помню.под плюшки самое то чтоб поржать!

    Ага точно повторю я прям щас._)_)pb.wtf



      Дорогой пользователь! Огромная просьба, поблагодарите релизера, оцените раздачу и оставьте свои комментарий, если Вы скачали Не грози южному централу, попивая сок у себя в квартале через торрент бесплатно! Внесите свою лепту в развитие PiratBit!
      Комментировать посты могут только пользователи прошедшие не сложную регистрацию
      Показать сообщения:    

      Не грози южному централу, попивая сок у себя в квартале через торрент
      Скачать бесплатно Не грози южному централу, попивая сок у себя в квартале
      Не грози южному централу, попивая сок у себя в квартале скачать торрент
      Не грози южному централу, попивая сок у себя в квартале смотреть онлайн
      Cкачать фильм Не грози южному централу, попивая сок у себя в квартале бесплатно
      Не грози южному централу, попивая сок у себя в квартале скачать торрент в хорошем качестве
      Не грози южному централу, попивая сок у себя в квартале смотреть онлайн бесплатно в хорошем качестве


      Вы не можете начинать темы
      Вы не можете отвечать на сообщения
      Вы не можете редактировать свои сообщения
      Вы не можете удалять свои сообщения
      Вы не можете голосовать в опросах
      Вы не можете прикреплять файлы к сообщениям
      Вы можете скачивать файлы