Ссылка на приватное зеркало нашего сайта всего за 1$. Внимание количество ограничено!!!

2 сезон

iTunes

1 сезон

1

iTunes

iTunes

iTunes

1 сезон

RePack

30

ИГРА 18+

pack

ВАЖНО

!!Акция!!

Alien_RageХит недели

RePack

MK11
pack

Забери бонус

RePack

jed

!!Акция!!

Alien_Rage

RePack

fifa19

RePack

Assassins Creed: Odyssey

RePack

NEED FOR SPEED™ PAYBACK

4 сезон

9 сезон

Бесстыжие 9 сезон

Все сериалы

все сериалы на PB.wtf

RePack

FAR CRY 5
  

Перси Джексон и похититель молний / Percy Jackson & the Olympians: The Lightning Thief (Крис Коламбус) [2010 г., фэнтези, детектив, приключения, BDRip 720p, Дубляж, лицензия] pb.wtf

Перси Джексон и похититель молний через торрент pb.wtf

Размер: 7.23 GB | Добавлен: 7 лет 4 мес. назад | Торрент скачан:325 раз
Скачать  

17-06-2013 19:28 Перси Джексон и похититель молний Скачать торрент  

Перси Джексон и похититель молний / Percy Jackson & the Olympians: The Lightning Thief «Его судьба решит наше будущее» Год выпуска: 2010
Страна: США
Жанр: фэнтези, детектив, приключения,
Продолжительность: 01:58:37
Перевод: Дубляж, Лицензия
Тип релиза: Лицензия
Субтитры: Есть

Режиссер: Крис Коламбус
Продюссер: Майкл Барнатан, Крис Коламбус, Марк Рэдклифф
Сценарий: Крэйг Титли, Рик Риордан

Бюджет: $95 000 000
Премьера в мире: 10 февраля 2010



IMDB 5.80 (75 517)



В ролях: Логан Лерман, Брэндон Т. Джексон, Александра Даддарио, Джейк Эйбел, Шон Бин, Пирс Броснан, Стив Куган, Розарио Доусон, Мелина Канакаредес, Кэтрин Кинер

Описание: Главный персонаж — мальчик, узнавший, что его отец — греческий бог. В сопровождении сатира и дочери Афины он отправляется в опасное путешествие, чтобы примирить богов.

Качество: BDRip 720p
Формат: MKV
Видео кодек: H.264
Аудио кодек: DTS/AC3
Видео: 1280x544 (2.35:1), 23.976 fps, 6 000 Kbps (0.359 bit/pixel)
Аудио #1: DTS, 48.0 KHz, 6 ch, 755 Kbps, CBR (Russian)
Аудио #2: AC-3, 48.0 KHz, 6 ch, 448 Kbps, CBR (Ukrainian)
Аудио #3: DTS, 48.0 KHz, 6 ch, 1 510 Kbps, CBR (English)
Субтитры: Russian, Ukrainian, English








Общее
Уникальный идентификатор : 189270248389179274355987098462651777880 (0x8E641FB79C710300A3A14EB9EA9D8358)
Полное имя : F:Перси Джексон и похититель молний.2010.720p.BDRip.Rus.Ukr.Eng.mkv
Формат : Matroska
Версия формата : Version 2
Размер файла : 7,23 Гбайт
Продолжительность : 1 ч. 58 м.
Общий поток : 8727 Кбит/сек
Название фильма : Перси Джексон и похититель молний (2010)
Дата кодирования : UTC 2010-08-19 13:26:51
Программа кодирования : mkvmerge v3.4.0 сборка от May 15 2010 09:38:20
Библиотека кодирования : libebml v0.8.0 + libmatroska v0.9.0

Видео
Идентификатор : 1
Формат : AVC
Формат/Информация : Advanced Video Codec
Профиль формата : High@L4.1
Параметр CABAC формата : Да
Параметр ReFrames формата : 8 кадров
Идентификатор кодека : V_MPEG4/ISO/AVC
Продолжительность : 1 ч. 58 м.
Битрейт : 6000 Кбит/сек
Ширина : 1280 пикселей
Высота : 544 пикселя
Соотношение сторон : 2,35:1
Режим частоты кадров : Постоянный
Частота кадров : 23,976 кадра/сек
Цветовое пространство : YUV
Субдискретизация насыщенности : 4:2:0
Битовая глубина : 8 бит
Тип развёртки : Прогрессивная
Бит/(Пиксели*Кадры) : 0.359
Размер потока : 4,83 Гбайт (67%)
Заголовок : Перси Джексон
Библиотека кодирования : x264 core 98 r1629 2e81ce1
Настройки программы : cabac=1 / ref=8 / deblock=1:-3:-3 / analyse=0x3:0x113 / me=tesa / subme=10 / psy=1 / psy_rd=1.00:0.00 / mixed_ref=1 / me_range=16 / chroma_me=1 / trellis=2 / 8x8dct=1 / cqm=0 / deadzone=21,11 / fast_pskip=0 / chroma_qp_offset=-2 / threads=6 / sliced_threads=0 / nr=0 / decimate=0 / interlaced=0 / constrained_intra=0 / bframes=7 / b_pyramid=2 / b_adapt=2 / b_bias=0 / direct=3 / weightb=1 / weightp=2 / keyint=250 / keyint_min=25 / scenecut=40 / intra_refresh=0 / rc=2pass / mbtree=0 / bitrate=6000 / ratetol=1.0 / qcomp=0.60 / qpmin=10 / qpmax=51 / qpstep=4 / cplxblur=20.0 / qblur=0.5 / ip_ratio=1.40 / pb_ratio=1.30 / aq=1:0.70
Язык : English
Default : Да
Forced : Нет

Аудио #1
Идентификатор : 2
Формат : DTS
Формат/Информация : Digital Theater Systems
Режим : 16
Параметр Endianness формата : Big
Идентификатор кодека : A_DTS
Продолжительность : 1 ч. 58 м.
Вид битрейта : Постоянный
Битрейт : 768 Кбит/сек
Каналы : 6 каналов
Расположение каналов : Front: L C R, Side: L R, LFE
Частота : 48,0 КГц
Битовая глубина : 24 бит
Метод сжатия : С потерями
Размер потока : 652 Мбайт (9%)
Заголовок : Дубляж, Blu-ray CEE
Язык : Russian
Default : Да
Forced : Нет

Аудио #2
Идентификатор : 3
Формат : AC-3
Формат/Информация : Audio Coding 3
Расширение режима : CM (complete main)
Параметр Endianness формата : Big
Идентификатор кодека : A_AC3
Продолжительность : 1 ч. 58 м.
Вид битрейта : Постоянный
Битрейт : 448 Кбит/сек
Каналы : 6 каналов
Расположение каналов : Front: L C R, Side: L R, LFE
Частота : 48,0 КГц
Битовая глубина : 16 бит
Метод сжатия : С потерями
Размер потока : 380 Мбайт (5%)
Заголовок : Дубляж, Blu-ray CEE
Язык : Ukrainian
Default : Нет
Forced : Нет

Аудио #3
Идентификатор : 4
Формат : DTS
Формат/Информация : Digital Theater Systems
Режим : 16
Параметр Endianness формата : Big
Идентификатор кодека : A_DTS
Продолжительность : 1 ч. 58 м.
Вид битрейта : Постоянный
Битрейт : 1509 Кбит/сек
Каналы : 6 каналов
Расположение каналов : Front: L C R, Side: L R, LFE
Частота : 48,0 КГц
Битовая глубина : 24 бит
Метод сжатия : С потерями
Размер потока : 1,25 Гбайт (17%)
Заголовок : Original English
Язык : English
Default : Нет
Forced : Нет

Текст #1
Идентификатор : 5
Формат : UTF-8
Идентификатор кодека : S_TEXT/UTF8
Идентификатор кодека/Информация : UTF-8 Plain Text
Заголовок : Русские субтитры, Blu-ray CEE
Язык : Russian
Default : Нет
Forced : Нет

Текст #2
Идентификатор : 6
Формат : UTF-8
Идентификатор кодека : S_TEXT/UTF8
Идентификатор кодека/Информация : UTF-8 Plain Text
Заголовок : Украинские субтитры, Blu-ray CEE
Язык : Ukrainian
Default : Нет
Forced : Нет

Текст #3
Идентификатор : 7
Формат : UTF-8
Идентификатор кодека : S_TEXT/UTF8
Идентификатор кодека/Информация : UTF-8 Plain Text
Заголовок : Original English
Язык : English
Default : Нет
Forced : Нет

Меню
00:00:00.000 : :Chapter 1
00:04:39.404 : :Chapter 2
00:07:28.448 : :Chapter 3
00:09:47.295 : :Chapter 4
00:14:56.020 : :Chapter 5
00:20:28.894 : :Chapter 6
00:24:39.770 : :Chapter 7
00:31:09.993 : :Chapter 8
00:34:25.939 : :Chapter 9
00:38:50.578 : :Chapter 10
00:41:23.147 : :Chapter 11
00:43:15.384 : :Chapter 12
00:46:49.557 : :Chapter 13
00:50:05.836 : :Chapter 14
00:56:49.615 : :Chapter 15
01:01:35.400 : :Chapter 16
01:04:49.260 : :Chapter 17
01:10:20.591 : :Chapter 18
01:13:32.783 : :Chapter 19
01:20:58.353 : :Chapter 20
01:25:16.862 : :Chapter 21
01:29:38.915 : :Chapter 22
01:33:42.742 : :Chapter 23
01:38:35.701 : :Chapter 24
01:41:45.850 : :Chapter 25
01:44:47.114 : :Chapter 26
01:47:43.582 : :Chapter 27
01:52:12.017 : :Chapter 28


Перси Джексон и похититель молний скачать торрент




pb.wtf



Скачать Перси Джексон и похититель молний через торрент http://pic.kartinco.top/images/2/kmyhbvvs19.png Скачать фильм Перси Джексон и похититель молний через торрент бесплантно в хорошем качестве Описание: Главный персонаж — мальчик, узнавший, что его отец — греческий бог. В сопровождении сатира и дочери Афины он отправляется в ... 9.6 10 27
Info! Золотая раздача, скачанное не засчитывается.
Торрент: Зарегистрирован [2013-06-17 19:28] · скачан: 325 раз
Статус: √ проверено
Размер: 7.23 GB
Как cкачать? Как скачать Перси Джексон и похититель молний через торрент | qTorrent

28-11-2019 20:33  

Отключить всю рекламу на сайте

18-09-2015 07:03 Перси Джексон и похититель молний Скачать торрент  

Встаньте на раздачу, пожалуйста :)pb.wtf



    Дорогой пользователь! Огромная просьба, поблагодарите релизера, оцените раздачу и оставьте свои комментарий, если Вы скачали Перси Джексон и похититель молний через торрент бесплатно! Внесите свою лепту в развитие PiratBit!
    Комментировать посты могут только пользователи прошедшие не сложную регистрацию
    Показать сообщения:    

    Перси Джексон и похититель молний через торрент
    Скачать бесплатно Перси Джексон и похититель молний
    Перси Джексон и похититель молний скачать торрент
    Перси Джексон и похититель молний смотреть онлайн
    Cкачать фильм Перси Джексон и похититель молний бесплатно
    Перси Джексон и похититель молний скачать торрент в хорошем качестве
    Перси Джексон и похититель молний смотреть онлайн бесплатно в хорошем качестве


    Вы не можете начинать темы
    Вы не можете отвечать на сообщения
    Вы не можете редактировать свои сообщения
    Вы не можете удалять свои сообщения
    Вы не можете голосовать в опросах
    Вы не можете прикреплять файлы к сообщениям
    Вы можете скачивать файлы