Ссылка на приватное зеркало всего за 1$. Внимание количество ограничено!!!

iTunes

iTunes

iTunes

1

iTunes

iTunes

iTunes

iTunes

iTunes

30
pack

Новость дня

ВАЖНО

!!Акция!!

Alien_RageХит недели

RePack

Resident Evil 21

ИГРА 18+

pack

RePack

jed

!!Акция!!

Alien_Rage

RePack

fifa19

RePack

Assassins Creed: Odyssey

RePack

NEED FOR SPEED™ PAYBACK

4 сезон

9 сезон

Бесстыжие 9 сезон

Все сериалы

все сериалы на PB.wtf

RePack

FAR CRY 5
  

Это вовсе не Крепкий орешек 3D / This Ain't Die Hard XXX 3D (Stuart Canterbury / Hustler) [2013 г., Parodies, All Sex, Big tits, 3D, BDRip 1080p, Оригинал] Half SideBySide pb.wtf

Это вовсе не Крепкий орешек 3D через торрент pb.wtf

Размер: 10.44 GB | Добавлен: 6 лет 11 мес. назад | Торрент скачан:649 раз
Скачать  

19-06-2013 08:48 Это вовсе не Крепкий орешек 3D Скачать торрент  

This Ain't Die Hard XXX 3DЭто вовсе не Крепкий орешек 3D Год выпуска: 2013
Страна: США
Жанр: Parodies, All Sex, Big tits, 3D
Продолжительность: 01:45:21
Перевод: Оригинал

Режиссер: Stuart Canterbury
Студия: Hustler

В ролях:
Brooklyn Lee, Tommy Gunn, Billy Glide, Kimberly Kane, Derrick Pierce, Leilani Leeanne, Ryan Driller, Holly Taylor, Capri Cavanni

Описание:
This Ain't Die Hard XXX 3D porn Yippee ki-ya Mother Fucker!

Проверено на встроенном плейере ТВ Samsung UE55 D6100

Тип HD видео: 1080p
Формат 3D: Half SideBySide / Горизонтальная анаморфная стереопара
Качество: BDRip
Формат: MKV
Видео кодек: H.264
Аудио кодек: AC3
Видео: MPEG4 Video (H264) / 1920x1080p / 23.98fps / 13.7 Mbps
Аудио: English / Dolby AC3 / 48000Hz / stereo / 224 kbps

Общее
Уникальный идентификатор : 208424971406643729781332801643913726833 (0x9CCD3079D506D6ADBEC61A65AAD8CB71)
Полное имя : D:DownloadAdult contentThis Ain't Die Hard XXX 3D 2013 BDRip halfSbS 1080p (IgorekSh).mkv
Формат : Matroska
Версия формата : Version 2
Размер файла : 10,4 Гбайт
Продолжительность : 1 ч. 45 м.
Режим общего битрейта : Переменный
Общий поток : 14,2 Мбит/сек
Название фильма : IgorekSh
Дата кодирования : UTC 2013-06-07 09:21:42
Программа кодирования : mkvmerge v4.2.0 ('No Talking') сборка от Jul 28 2010 18:38:23
Библиотека кодирования : libebml v1.0.0 + libmatroska v1.0.0

Видео
Идентификатор : 1
Формат : AVC
Формат/Информация : Advanced Video Codec
Профиль формата : High@L4.1
Параметр CABAC формата : Да
Параметр ReFrames формата : 2 кадра
Режим смешивания : Header stripping
Идентификатор кодека : V_MPEG4/ISO/AVC
Продолжительность : 1 ч. 45 м.
Вид битрейта : Переменный
Битрейт : 13,7 Мбит/сек
Максимальный битрейт : 21,0 Мбит/сек
Ширина : 1920 пикселей
Высота : 1080 пикселей
Соотношение сторон : 16:9
Режим частоты кадров : Постоянный
Частота кадров : 23,976 кадра/сек
Цветовое пространство : YUV
Субдискретизация насыщенности : 4:2:0
Битовая глубина : 8 бит
Тип развёртки : Прогрессивная
Бит/(Пиксели*Кадры) : 0.275
Размер потока : 10,1 Гбайт (96%)
Заголовок : IgorekSh
Язык : English
Default : Да
Forced : Нет

Аудио
Идентификатор : 2
Формат : AC-3
Формат/Информация : Audio Coding 3
Расширение режима : CM (complete main)
Параметр Endianness формата : Big
Режим смешивания : Header stripping
Идентификатор кодека : A_AC3
Продолжительность : 1 ч. 45 м.
Вид битрейта : Постоянный
Битрейт : 224 Кбит/сек
Каналы : 2 канала
Расположение каналов : Front: L R
Частота : 48,0 КГц
Битовая глубина : 16 бит
Метод сжатия : С потерями
Размер потока : 169 Мбайт (2%)
Заголовок : Original
Язык : English
Default : Да
Forced : Нет

pb.wtf



pack Скачать Это вовсе не Крепкий орешек 3D через торрент http://pic.kartinco.top/images/2/fgu7tcnlu1.png Скачать фильм Это вовсе не Крепкий орешек 3D через торрент бесплантно в хорошем качестве Описание: This Ain't Die Hard XXX 3D porn Yippee ki-ya Mother Fucker!Проверено на встроенном плейере ТВ Samsung UE55 D6100Тип HD видео: ... 9.8 10 13
Info! Золотая раздача, скачанное не засчитывается.
Торрент: Зарегистрирован [2013-06-19 08:48] · скачан: 649 раз
Статус: √ проверено
Размер: 10.44 GB
Как cкачать? Как скачать Это вовсе не Крепкий орешек 3D через торрент | qTorrent

28-11-2019 20:33  

Отключить всю рекламу на сайте

    Дорогой пользователь! Огромная просьба, поблагодарите релизера, оцените раздачу и оставьте свои комментарий, если Вы скачали Это вовсе не Крепкий орешек 3D через торрент бесплатно! Внесите свою лепту в развитие PiratBit!
    Комментировать посты могут только пользователи прошедшие не сложную регистрацию
    Показать сообщения:    

    Это вовсе не Крепкий орешек 3D через торрент
    Скачать бесплатно Это вовсе не Крепкий орешек 3D
    Это вовсе не Крепкий орешек 3D скачать торрент
    Это вовсе не Крепкий орешек 3D смотреть онлайн
    Cкачать фильм Это вовсе не Крепкий орешек 3D бесплатно
    Это вовсе не Крепкий орешек 3D скачать торрент в хорошем качестве
    Это вовсе не Крепкий орешек 3D смотреть онлайн бесплатно в хорошем качестве


    Вы не можете начинать темы
    Вы не можете отвечать на сообщения
    Вы не можете редактировать свои сообщения
    Вы не можете удалять свои сообщения
    Вы не можете голосовать в опросах
    Вы не можете прикреплять файлы к сообщениям
    Вы можете скачивать файлы