Ссылка на приватное зеркало всего за 1$. Внимание количество ограничено!!!

iTunes

iTunes

iTunes

1

iTunes

iTunes

iTunes

iTunes

iTunes

30
pack

Новость дня

ВАЖНО

!!Акция!!

Alien_RageХит недели

RePack

Resident Evil 21

ИГРА 18+

pack

RePack

jed

!!Акция!!

Alien_Rage

RePack

fifa19

RePack

Assassins Creed: Odyssey

RePack

NEED FOR SPEED™ PAYBACK

4 сезон

9 сезон

Бесстыжие 9 сезон

Все сериалы

все сериалы на PB.wtf

RePack

FAR CRY 5
  

Penthouse Petland 3D / Penthouse Petland 3D (Guy Capo / Penthouse) [2013 г., All Sex, 3D, BDRip 1080p, Оригинал] Half SideBySide pb.wtf

Penthouse Petland 3D через торрент pb.wtf

Размер: 10.31 GB | Добавлен: 6 лет 11 мес. назад | Торрент скачан:1323 раза
Скачать  

19-06-2013 09:12 Penthouse Petland 3D Скачать торрент  

Penthouse Petland 3D Год выпуска: 2013
Страна: США
Жанр: All Sex, 3D
Продолжительность: 01:32:04
Перевод: Оригинал

Режиссер: Guy Capo
Студия: Penthouse

В ролях:
Stella Styles, Dani Daniels, Phoenix Marie, Melissa Jacobs, Natasha Nice, Chanel Preston, Jenna Ros

Описание:
Penthouse Pet Natasha Nice trifft auf Johnny Castle, Phoenix Marie trifft auf Ryan und in der dritten Szene vergnügen sich Dani Daniels und Melissa Jacobs miteinander. Nicht weniger heiß treiben es Jenna Rose mit Richie und Chanel Preston mit Tommy Gunn. In der Bonus-Szene erwartet dich das deutsche Penthouse Pet Stella Styles.

Проверено на встроенном плейере ТВ Samsung UE55 D6100

Тип HD видео: 1080p
Формат 3D: Half SideBySide / Горизонтальная анаморфная стереопара
Качество: BDRip
Формат: MKV
Видео кодек: H.264
Аудио кодек: AC3
Видео: MPEG4 Video (H264) / 1920x1080p / 23.98fps / ~15.5 Mbps
Аудио: English / Dolby AC3 / 48000Hz / stereo / 256 kbps
Общее
Уникальный идентификатор : 233916114065575897433340837928667302029 (0xAFFA9AD7CD02F6B1A2A81F5585F5C88D)
Полное имя : D:DownloadAdult contentPenthouse Petland 3D 2013 BDRip halfSbS 1080p (IgorekSh).mkv
Формат : Matroska
Версия формата : Version 2
Размер файла : 10,3 Гбайт
Продолжительность : 1 ч. 32 м.
Режим общего битрейта : Переменный
Общий поток : 16,0 Мбит/сек
Название фильма : Penthouse.Petland.XXX.3D.H-SBS.x264.1080p.-.NoName
Дата кодирования : UTC 2013-04-23 17:05:31
Программа кодирования : DVDFab
Библиотека кодирования : libebml v0.7.8 + libmatroska v0.8.1

Видео
Идентификатор : 1
Формат : AVC
Формат/Информация : Advanced Video Codec
Профиль формата : High@L4.1
Параметр CABAC формата : Да
Параметр ReFrames формата : 2 кадра
Идентификатор кодека : V_MPEG4/ISO/AVC
Продолжительность : 1 ч. 32 м.
Вид битрейта : Переменный
Битрейт : 15,5 Мбит/сек
Максимальный битрейт : 24,0 Мбит/сек
Ширина : 1920 пикселей
Высота : 1080 пикселей
Соотношение сторон : 16:9
Режим частоты кадров : Постоянный
Частота кадров : 23,976 кадра/сек
Цветовое пространство : YUV
Субдискретизация насыщенности : 4:2:0
Битовая глубина : 8 бит
Тип развёртки : Прогрессивная
Бит/(Пиксели*Кадры) : 0.311
Размер потока : 9,94 Гбайт (96%)
Default : Да
Forced : Нет

Аудио
Идентификатор : 2
Формат : AC-3
Формат/Информация : Audio Coding 3
Расширение режима : CM (complete main)
Параметр Endianness формата : Big
Идентификатор кодека : A_AC3
Продолжительность : 1 ч. 32 м.
Вид битрейта : Постоянный
Битрейт : 256 Кбит/сек
Каналы : 2 канала
Расположение каналов : Front: L R
Частота : 48,0 КГц
Битовая глубина : 16 бит
Метод сжатия : С потерями
Размер потока : 169 Мбайт (2%)
Язык : English
Default : Да
Forced : Нет

Меню
00:00:00.000 : en:(01)00:00:00:000
00:01:30.006 : en:(02)00:01:30:006
00:22:04.823 : en:(03)00:22:04:823
00:43:41.619 : en:(04)00:43:41:619
01:00:59.656 : en:(05)01:00:59:656
01:15:22.518 : en:(06)01:15:22:518
01:30:29.424 : en:(07)01:30:29:424

pb.wtf



pack Скачать Penthouse Petland 3D через торрент http://pic.kartinco.top/images/2/4uykpkadil.png Скачать фильм Penthouse Petland 3D через торрент бесплантно в хорошем качестве Описание: Penthouse Pet Natasha Nice trifft auf Johnny Castle, Phoenix Marie trifft auf Ryan und in der dritten Szene vergnügen sich Dani ... 9.7 10 24
Info! Золотая раздача, скачанное не засчитывается.
Торрент: Зарегистрирован [2013-06-19 09:12] · скачан: 1 323 раз
Статус: √ проверено
Размер: 10.31 GB
Как cкачать? Как скачать Penthouse Petland 3D через торрент | qTorrent

28-11-2019 20:33  

Отключить всю рекламу на сайте

    Дорогой пользователь! Огромная просьба, поблагодарите релизера, оцените раздачу и оставьте свои комментарий, если Вы скачали Penthouse Petland 3D через торрент бесплатно! Внесите свою лепту в развитие PiratBit!
    Комментировать посты могут только пользователи прошедшие не сложную регистрацию
    Показать сообщения:    

    Penthouse Petland 3D через торрент
    Скачать бесплатно Penthouse Petland 3D
    Penthouse Petland 3D скачать торрент
    Penthouse Petland 3D смотреть онлайн
    Cкачать фильм Penthouse Petland 3D бесплатно
    Penthouse Petland 3D скачать торрент в хорошем качестве
    Penthouse Petland 3D смотреть онлайн бесплатно в хорошем качестве


    Вы не можете начинать темы
    Вы не можете отвечать на сообщения
    Вы не можете редактировать свои сообщения
    Вы не можете удалять свои сообщения
    Вы не можете голосовать в опросах
    Вы не можете прикреплять файлы к сообщениям
    Вы можете скачивать файлы