Ссылка на приватное зеркало нашего сайта всего за 1$. Внимание количество ограничено!!!

2 сезон

iTunes

1 сезон

1

2 сезон

2 сезон

iTunes

1 сезон

RePack

30

Ultimate

ВАЖНО

ИГРА 18+

pack

RePack

MK11
pack

Забери бонус

RePack

jed

!!Акция!!

Alien_Rage

RePack

fifa19

RePack

Assassins Creed: Odyssey

RePack

NEED FOR SPEED™ PAYBACK

4 сезон

9 сезон

Бесстыжие 9 сезон

Все сериалы

все сериалы на PB.wtf

RePack

FAR CRY 5
  

Не двигайся / Don't Move (Энтони Мелтон) [2013 г., короткометражка, ужасы, WEB-DLRip 720p, VO] pb.wtf

Не двигайся через торрент pb.wtf

Размер: 221 MB | Добавлен: 7 лет 5 мес. назад | Торрент скачан:81 раз
Скачать  

20-06-2013 06:29 Не двигайся Скачать торрент  

Не двигайся / Don't Move
Год выпуска: 2013
Страна: Великобритания
Жанр: короткометражка, ужасы,
Продолжительность: 00:13:56
Перевод: Любительский одноголосый

Режиссер: Энтони Мелтон
Продюссер: Бен Франклин, Энтони Мелтон
Сценарий: Дэвид Скаллион

Бюджет: £3 000
Премьера в мире: 23 марта 2013

IMDb: 6.90 (41)
Кинопоиск: 6.714 15

В ролях: Кейт Брейтуэйт, Рэйчел Брайт, Бет Купер, Кэлвин Дин, Джэйк Хендрикс, Мартин Скиппер, Йен Уайт,

Описание: Шестеро друзей при помощи колдовской доски вызывают из глубин преисподней страшного демона. Он слеп и глух, но от него не уйдет никто…

Качество: WEB-DLRip 720p
Формат: MP4
Видео кодек: AVC
Аудио кодек: AC3
Видео: 2090 Кбит/сек, 1280x720 ( 16:9), в 25,000 кадр/сек, AVC
Аудио#1: 128 Кбит/сек, 44,1 КГц, 16 бит, 2 канала, AC-3





Общее
Полное имя : D:TorrentNe dvigaysya.(2013).mp4
Формат : MPEG-4
Профиль формата : Base Media
Идентификатор кодека : isom
Размер файла : 221 Мбайт
Продолжительность : 13 м.
Общий поток : 2221 Кбит/сек
Дата кодирования : UTC 2013-06-20 05:42:14
Дата пометки : UTC 2013-06-20 05:42:14
Программа кодирования : Lavf51.12.1

Видео
Идентификатор : 1
Формат : AVC
Формат/Информация : Advanced Video Codec
Профиль формата : Baseline@L3.1
Параметр CABAC формата : Нет
Параметр ReFrames формата : 1 кадр
Параметры GOP формата : M=1, N=12
Идентификатор кодека : avc1
Идентификатор кодека/Информация : Advanced Video Coding
Продолжительность : 13 м.
Вид битрейта : Переменный
Битрейт : 2090 Кбит/сек
Максимальный битрейт : 3000 Кбит/сек
Ширина : 1280 пикс.
Высота : 720 пикс.
Соотношение сторон : 16:9
Режим частоты кадров : Постоянный
Частота кадров : 25,000 кадр/сек
Частота кадров в оригинале : 24,000 кадр/сек
Цветовое пространство : YUV
Подвыборка цветности : 4:2:0
Битовая глубина : 8 бит
Тип развёртки : Прогрессивная
Бит/(Пиксели*Кадры) : 0.091
Размер потока : 208 Мбайт (94%)
Дата кодирования : UTC 2013-06-20 05:42:14
Дата пометки : UTC 2013-06-20 05:42:14

Аудио
Идентификатор : 2
Формат : AC-3
Формат/Информация : Audio Coding 3
Расширение режима : CM (complete main)
Идентификатор кодека : ac-3
Продолжительность : 13 м.
Вид битрейта : Постоянный
Битрейт : 128 Кбит/сек
Каналы : 2 канала
Расположение каналов : Front: L R
Частота : 44,1 КГц
Битовая глубина : 16 бит
Метод сжатия : С потерями
Размер потока : 12,8 Мбайт (6%)
Дата кодирования : UTC 2013-06-20 05:42:14
Дата пометки : UTC 2013-06-20 05:42:14

pb.wtf



Скачать Не двигайся через торрент http://pic.kartinco.top/images/2/5nqno3ii6n.jpg Скачать фильм Не двигайся через торрент бесплантно в хорошем качестве Описание: Шестеро друзей при помощи колдовской доски вызывают из глубин преисподней страшного демона. Он слеп и глух, но от него не уйдет ... 4 10 3
Info! Золотая раздача, скачанное не засчитывается.
Торрент: Зарегистрирован [2013-06-20 06:29] · скачан: 81 раз
Статус: √ проверено
Размер: 221 MB
Как cкачать? Как скачать Не двигайся через торрент | qTorrent

28-11-2019 20:33  

Отключить всю рекламу на сайте

20-06-2013 06:34 Не двигайся Скачать торрент  

низкая производительность
13 минут на 6-х негритят :hang:pb.wtf



20-06-2013 15:15 Не двигайся Скачать торрент  

Нормальный фильмец для бюджета £3 000pb.wtf



    Дорогой пользователь! Огромная просьба, поблагодарите релизера, оцените раздачу и оставьте свои комментарий, если Вы скачали Не двигайся через торрент бесплатно! Внесите свою лепту в развитие PiratBit!
    Комментировать посты могут только пользователи прошедшие не сложную регистрацию
    Показать сообщения:    

    Не двигайся через торрент
    Скачать бесплатно Не двигайся
    Не двигайся скачать торрент
    Не двигайся смотреть онлайн
    Cкачать фильм Не двигайся бесплатно
    Не двигайся скачать торрент в хорошем качестве
    Не двигайся смотреть онлайн бесплатно в хорошем качестве


    Вы не можете начинать темы
    Вы не можете отвечать на сообщения
    Вы не можете редактировать свои сообщения
    Вы не можете удалять свои сообщения
    Вы не можете голосовать в опросах
    Вы не можете прикреплять файлы к сообщениям
    Вы можете скачивать файлы