Ссылка на приватное зеркало всего за 1$. Внимание количество ограничено!!!

iTunes

1+1

iTunes

мы

WEB-DL

1

iTunes

Чернобыль

iTunes

Ральф против интернета

Лицензия

ПШазам

Лицензия

Оно 2

Лицензия

30
pack

Вам бонус

ВАЖНО

!!Акция!!

Alien_RageХит недели

RePack

Resident Evil 21

ИГРА 18+

pack

RePack

jed

!!Акция!!

Alien_Rage

RePack

fifa19

RePack

Assassins Creed: Odyssey

RePack

NEED FOR SPEED™ PAYBACK

3 сезон

9 сезон

Бесстыжие 9 сезон

Все сериалы

все сериалы на PB.wtf

RePack

FAR CRY 5
Ребята, катастрофически не хватает 1900р. для оплаты серверов за Октябрь (всвязи с блокировками трафик упал в 3 раза), 1-2р., выручайте.
  

Клан Сопрано (Семья Сопрано) - Сезон: 1 [13 серий] / The Sopranos - Season 1 (Тимоти Ван Паттен, Джон Паттерсон, Аллен Култер) [1999 г., триллер, драма, криминал, BDRip] AVO (Ю.Сербин) pb.wtf

Клан Сопрано через торрент pb.wtf

Размер: 8.89 GB | Добавлен: 6 лет 5 мес. назад | Торрент скачан:543 раза
Скачать  

20-06-2013 08:20 Клан Сопрано Скачать торрент  

Клан Сопрано (Семья Сопрано) / The Sopranos
Сезон 1

Год выпуска: 1999
Страна: США
Жанр: драма, криминал
Продолжительность: 13х~00:55:00

Перевод: Авторский (одноголосый закадровый) - Ю. Сербин

Русские субтитры: нет

Режиссёр: Тимоти Ван Паттен, Джон Паттерсон, Аллен Култер

В ролях: Джеймс Гандольфини, Иди Фалько, Джэми-Линн Сиглер, Майкл Империоли, Лоррейн Бракко, Тони Сирико, Роберт Айлер, Стив Ван Зандт, Доминик Кьянезе, Аида Туртурро

Описание: Повседневная жизнь современного Крестного отца: его мысли - стремительны, действия - решительны, а юмор - черен. Мафиозный босс Северного Джерси Тони Сопрано успешно справляется с проблемами «Семьи».
Но вот собственная семья немного подкачала: дети от рук отбились, брак - под угрозой, мамаша - пилит. Он надеется на помощь психиатра, но как тому рассказать обо всех своих проблемах, если связан «Омертой» - обетом молчания, нарушать который нельзя под страхом смерти?


КИНОПОИСК
Сэмпл

Качество: BDRip
Формат: AVI
Видео кодек: XviD
Аудио кодек: AC3
Видео: 720x400(1:80:1), 23.976 fps, XviD build 65 ~1572 kbps avg, 0.23 bit/pixel
Аудио : 48 kHz, AC3 Dolby Digital, 3/2 (L,C,R,l,r) + LFE ch, ~384 kbps avg (Ю. Сербин)
E:INTERNETThe.SopranosThe.Sopranos.S01E01.BluRay.Rus.Sponsored.avi
General
Complete name : E:INTERNETThe.SopranosThe.Sopranos.S01E01.BluRay.Rus.Sponsored.avi
Format : AVI
Format/Info : Audio Video Interleave
File size : 705 MiB
Duration : 1h 0mn
Overall bit rate : 1 641 Kbps
Writing application : VirtualDubMod 1.5.10.2 (build 2540/release)
Writing library : VirtualDubMod build 2540/release
Video #0
ID : 0
Format : MPEG-4 Visual
Format profile : Advanced Simple@L5
Format settings, BVOP : 2
Format settings, QPel : No
Format settings, GMC : No warppoints
Format settings, Matrix : Default (MPEG)
Codec ID : XVID
Codec ID/Hint : XviD
Duration : 1h 0mn
Bit rate : 1 248 Kbps
Width : 720 pixels
Height : 400 pixels
Display aspect ratio : 16:9
Frame rate : 23.976 fps
Color space : YUV
Chroma subsampling : 4:2:0
Bit depth : 8 bits
Scan type : Progressive
Compression mode : Lossy
Bits/(Pixel*Frame) : 0.181
Stream size : 536 MiB (76%)
Writing library : XviD 1.2.1 (UTC 2008-12-04)
Audio #1
ID : 1
Format : AC-3
Format/Info : Audio Coding 3
Mode extension : CM (complete main)
Format settings, Endianness : Big
Codec ID : 2000
Duration : 1h 0mn
Bit rate mode : Constant
Bit rate : 384 Kbps
Channel(s) : 6 channels
Channel positions : Front: L C R, Side: L R, LFE
Sampling rate : 48.0 KHz
Bit depth : 16 bits
Compression mode : Lossy
Stream size : 165 MiB (23%)
Alignment : Split accross interleaves
Interleave, duration : 42 ms (1.00 video frame)
Interleave, preload duration : 500 ms

pb.wtf



Скачать Клан Сопрано через торрент http://i54.fastpic.ru/big/2012/1222/06/cd2520cb6ee345723bb25b7b18b9ac06.jpg Скачать фильм Клан Сопрано через торрент бесплантно в хорошем качестве Описание: Повседневная жизнь современного Крестного отца: его мысли - стремительны, действия - решительны, а юмор - черен. Мафиозный босс ... 10 10 8
Info! Золотая раздача, скачанное не засчитывается.
Торрент: Зарегистрирован [2013-06-20 08:20] · скачан: 543 раз
Статус: √ проверено
Размер: 8.89 GB
Как cкачать? Как скачать Клан Сопрано через торрент | qTorrent

% Раздел Тема Автор DL S | L
Клан Сопрано [ 180.21 GB ] Клан Сопрано / The Sopranos / Сезон: 1-6 / Серии: 1-86 из 86 [1999-2007 WEB-DL 720p] 2xAVO [Д.Пучков М.Чадов] bober100 Скачать
3 | 2
Клан Сопрано [ 186.27 GB ] Клан Сопрано - Сезон: 1 [13 серий] / The Sopranos - Season 1 [1999 BDRemux 1080p] 3x[AVO] + 3x[MVO] + + [Orig] + [Subs] killermax2013 Скачать
1 | 0
Клан Сопрано [ 19.19 GB ] Клан Сопрано - Сезон: 1 [13 серий] / The Sopranos - Season 1 [1999 HDTVRip 720p] brown1nggg Скачать
1 | 0
Клан Сопрано [ 135.47 GB ] Клан Сопрано - Сезон: 2 [13 серий] / The Sopranos - Season 2 [2000 BDRemux 1080p] 3x[AVO] + 3x[MVO] + [Orig]+ [Subs] killermax2013 Скачать
1 | 0
Клан Сопрано [ 31.68 GB ] Клан Сопрано / The Sopranos / сезон 1-6 [1999-2007 DVDRip-AVC] MVO AARRSSEENN Скачать
1 | 1
Клан Сопрано [ 1.39 GB ] Клан Сопрано / The Sopranos [2001 HDRip] [AVO] killermax2013 Скачать
1 | 0
Клан Сопрано [ 3.48 GB ] Клан Сопрано / The Sopranos [2000 WEB-DLRip HDRip] [AVO] killermax2013 Скачать
1 | 0


Последний раз редактировалось: killermax2013 (2013-06-20 11:00), всего редактировалось 1 раз

28-11-2019 20:33  

Отключить всю рекламу на сайте

20-06-2013 09:08 Клан Сопрано Скачать торрент  

Умер исполнитель главной роли в сериале «Клан Сопрано» - Джеймс Гандольфини
В Риме 19 июня умер актер Джеймс Гандольфини. Об этом сообщает Reuters.

Как уточнили представители телеканала HBO, Гандольфини находился в Италии на отдыхе. По предварительным данным, причиной смерти актера стал сердечный приступ. Гандольфини был 51 год.

В общей сложности за свою карьеру Гандольфини снялся более чем в 40 фильмах, в том числе, в таких лентах как «Цель номер один», «Одинокие сердца», «Человек, которого не было» и «Последний замок».

Наибольшую известность Гандольфини принесла роль Тони Сопрано — главы мафиозного семейства в сериале «Клан Сопрано». Сериал выходил на телеканале HBO с 1999 года по 2007 год и имел значительный успех как у зрителей, так и у кинокритиков. В 2013 году американская Гильдия сценаристов признала «Клан Сопрано» лучшим сериалом в истории.

За роль Тони Сопрано Гандольфини трижды был удостоен премии «Эмми» и один раз получил «Золотой Глобус».
pb.wtf



    Дорогой пользователь! Огромная просьба, поблагодарите релизера, оцените раздачу и оставьте свои комментарий, если Вы скачали Клан Сопрано через торрент бесплатно! Внесите свою лепту в развитие PiratBit!
    Комментировать посты могут только пользователи прошедшие не сложную регистрацию
    Показать сообщения:    

    Клан Сопрано через торрент
    Скачать бесплатно Клан Сопрано
    Клан Сопрано скачать торрент
    Клан Сопрано смотреть онлайн
    Cкачать фильм Клан Сопрано бесплатно
    Клан Сопрано скачать торрент в хорошем качестве
    Клан Сопрано смотреть онлайн бесплатно в хорошем качестве


    Вы не можете начинать темы
    Вы не можете отвечать на сообщения
    Вы не можете редактировать свои сообщения
    Вы не можете удалять свои сообщения
    Вы не можете голосовать в опросах
    Вы не можете прикреплять файлы к сообщениям
    Вы можете скачивать файлы