Ссылка на приватное зеркало нашего сайта всего за 1$. Внимание количество ограничено!!!

2 сезон

iTunes

1 сезон

1

iTunes

iTunes

iTunes

1 сезон

RePack

30

ИГРА 18+

pack

ВАЖНО

!!Акция!!

Alien_RageХит недели

RePack

MK11
pack

Забери бонус

RePack

jed

!!Акция!!

Alien_Rage

RePack

fifa19

RePack

Assassins Creed: Odyssey

RePack

NEED FOR SPEED™ PAYBACK

4 сезон

9 сезон

Бесстыжие 9 сезон

Все сериалы

все сериалы на PB.wtf

RePack

FAR CRY 5
  

Кодовое имя «Джеронимо» / Seal Team Six: The Raid on Osama Bin Laden (Джон Стокуэлл / John Stockwell) [2012 , США , боевик, триллер, драма , BDRip 720p] MVO[ лицензия ]+Оригинал pb.wtf

Кодовое имя «Джеронимо» через торрент pb.wtf

Размер: 4.67 GB | Добавлен: 7 лет 4 мес. назад | Торрент скачан:227 раз
Скачать  

20-06-2013 18:46 Кодовое имя «Джеронимо» Скачать торрент  

Кодовое имя «Джеронимо» / Seal Team Six: The Raid on Osama Bin Laden


  • Год выпуска:2012
  • Страна: США
  • Жанр:боевик, триллер, драма, криминал
  • Продолжительность: 01:40:34
  • Перевод:Профессиональный (многоголосый, закадровый)[Лицензия]+Оригинал

  • Субтитры: Нет
    • Режиссер: Джон Стокуэлл / John Stockwell
    • Продюсер: Николя Картье / Nicolas Chartier, Зев Формен / Zev Foreman, Тони Марк / Tony Mark, Адам М. Стоун / Adam M. Stone, Кэт Уоллес / Cat Stone
    • Сценарий:Кендалл Лампкин / Kendall Lampkin

  • В ролях:Кэм Жиганде (Stunner), Энсон Маунт (Cherry), Фредди Родригес (Trench), Иксзибит (Mule), Кэтлин Робертсон (Vivian), Роберт Неппер (Lieutenant Commander), Эдди Кэй Томас (Christian), Кеннет Миллер (Sauce), Уильям Фихтнер (Mr. Guidry), Дженни Гэбриэлль (Tricia), Мэтт Галлини (Interrogator), Suhail Dabbach (Arab Man)
    • Описание:
      История о подразделении ВМС США - «Морские котики», которые убили Усаму бен Ладена в Пакистане в 2011 году. Фильм расскажет о том как «котики» готовились к этой миссии и об отважном ночном рейде на убежище бен Ладена.

  • Рейтинг
    kinopoisk.ru: 5.446 (209)
    imdb.com: 5.40 (4 168)
    • Качество: BDRip 720p
    • Формат: MKV
    • Видео кодек:AVC
    • Аудио кодек: DTS /AC3
    • Видео: AVC, 1280x690 (1.855), 4690 kbps, 23,976 fps, 0,221 bpp
    • Аудио №1: AC3 / 5.1 / 48 kHz / 448 kbps / 16 bit
      Аудио №2: DTS / 5.1 / 48 kHz / 1510 kbps / 24 bit [ English]

    General
    Unique ID : 223578258260527130949446547658000174454 (0xA8339B332FA9DA18AC62F7D3C4560D76)
    Complete name : D:ТорентыKodovoe.Jimya.Djereonimo.2012.P.BDRip.720p.mkv
    Format : Matroska
    Format version : Version 2
    File size : 4.67 GiB
    Duration : 1h 40mn
    Overall bit rate : 6 641 Kbps
    Encoded date : UTC 2013-06-19 18:01:10
    Writing application : mkvmerge v5.7.0 ('The Whirlwind') built on Jul 8 2012 20:08:51
    Writing library : libebml v1.2.3 + libmatroska v1.3.0

    Video
    ID : 1
    Format : AVC
    Format/Info : Advanced Video Codec
    Format profile : High@L4.1
    Format settings, CABAC : Yes
    Format settings, ReFrames : 8 frames
    Muxing mode : Header stripping
    Codec ID : V_MPEG4/ISO/AVC
    Duration : 1h 40mn
    Bit rate : 4 690 Kbps
    Width : 1 280 pixels
    Height : 690 pixels
    Display aspect ratio : 1.855
    Frame rate : 23.976 fps
    Color space : YUV
    Chroma subsampling : 4:2:0
    Bit depth : 8 bits
    Scan type : Progressive
    Bits/(Pixel*Frame) : 0.221
    Stream size : 3.20 GiB (69%)
    Writing library : x264 core 125 r2208 d9d2288
    Encoding settings : cabac=1 / ref=8 / deblock=1:-3:-3 / analyse=0x3:0x113 / me=umh / subme=10 / psy=1 / psy_rd=1.00:0.05 / mixed_ref=1 / me_range=32 / chroma_me=1 / trellis=2 / 8x8dct=1 / cqm=0 / deadzone=21,11 / fast_pskip=0 / chroma_qp_offset=-2 / threads=8 / lookahead_threads=1 / sliced_threads=0 / nr=0 / decimate=1 / interlaced=0 / bluray_compat=0 / constrained_intra=0 / bframes=6 / b_pyramid=2 / b_adapt=2 / b_bias=0 / direct=3 / weightb=1 / open_gop=0 / weightp=2 / keyint=250 / keyint_min=23 / scenecut=40 / intra_refresh=0 / rc=2pass / mbtree=0 / bitrate=4690 / ratetol=1.0 / qcomp=0.70 / qpmin=0 / qpmax=69 / qpstep=4 / cplxblur=20.0 / qblur=0.5 / ip_ratio=1.40 / pb_ratio=1.30 / aq=2:1.00
    Language : English
    Default : Yes
    Forced : No

    Audio #1
    ID : 2
    Format : AC-3
    Format/Info : Audio Coding 3
    Mode extension : CM (complete main)
    Muxing mode : Header stripping
    Codec ID : A_AC3
    Duration : 1h 40mn
    Bit rate mode : Constant
    Bit rate : 448 Kbps
    Channel(s) : 6 channels
    Channel positions : Front: L C R, Side: L R, LFE
    Sampling rate : 48.0 KHz
    Bit depth : 16 bits
    Compression mode : Lossy
    Stream size : 322 MiB (7%)
    Default : Yes
    Forced : No

    Audio #2
    ID : 3
    Format : DTS
    Format/Info : Digital Theater Systems
    Muxing mode : Header stripping
    Codec ID : A_DTS
    Duration : 1h 40mn
    Bit rate mode : Constant
    Bit rate : 1 510 Kbps
    Channel(s) : 6 channels
    Channel positions : Front: L C R, Side: L R, LFE
    Sampling rate : 48.0 KHz
    Bit depth : 24 bits
    Compression mode : Lossy
    Stream size : 1.06 GiB (23%)
    Default : No
    Forced : No
    Сценарий: Кендалл Лампкин / Kendall Lampkin
    Продюсер: Николя Картье / Nicolas Chartier, Зев Формен / Zev Foreman, Тони Марк / Tony Mark, Адам М. Стоун / Adam M. Stone, Кэт Уоллес / Cat Stone
    Оператор: Питер Холлэнд / Peter Holland
    Композитор: Пол Хаслингер / Paul Haslinger

    Мировая премьера: 26 октября 2012


    Скриншоты
    © Оформление by Vetalpb.wtf



  • Скачать Кодовое имя «Джеронимо» через торрент http://i4.imageban.ru/out/2013/06/20/e62ad9a81967d5efd507d6ee6cb0afc9.png Скачать фильм Кодовое имя «Джеронимо» через торрент бесплантно в хорошем качестве Описание:История о подразделении ВМС США - «Морские котики», которые убили Усаму бен Ладена в Пакистане в 2011 году. Фильм расскажет о том ... 7.6 10 9
    Info! Золотая раздача, скачанное не засчитывается.
    Торрент: Зарегистрирован [2013-06-20 18:46] · скачан: 227 раз
    Статус: √ проверено
    Размер: 4.67 GB
    Как cкачать? Как скачать Кодовое имя «Джеронимо» через торрент | qTorrent

    28-11-2019 20:33  

    Отключить всю рекламу на сайте

    20-06-2013 19:22 Кодовое имя «Джеронимо» Скачать торрент  

    фильм пародия на другой фильм пародию Цель номер один pb.wtf



    21-06-2013 04:38 Кодовое имя «Джеронимо» Скачать торрент  

    Такого человека взяли и убили ...pb.wtf



    21-06-2013 06:04 Кодовое имя «Джеронимо» Скачать торрент  

    gladk писал(а):

    Такого человека взяли и убили ...

    ну да сперва сами его выдумали а потом спустя годы и убили pb.wtf



      Дорогой пользователь! Огромная просьба, поблагодарите релизера, оцените раздачу и оставьте свои комментарий, если Вы скачали Кодовое имя «Джеронимо» через торрент бесплатно! Внесите свою лепту в развитие PiratBit!
      Комментировать посты могут только пользователи прошедшие не сложную регистрацию
      Показать сообщения:    

      Кодовое имя «Джеронимо» через торрент
      Скачать бесплатно Кодовое имя «Джеронимо»
      Кодовое имя «Джеронимо» скачать торрент
      Кодовое имя «Джеронимо» смотреть онлайн
      Cкачать фильм Кодовое имя «Джеронимо» бесплатно
      Кодовое имя «Джеронимо» скачать торрент в хорошем качестве
      Кодовое имя «Джеронимо» смотреть онлайн бесплатно в хорошем качестве


      Вы не можете начинать темы
      Вы не можете отвечать на сообщения
      Вы не можете редактировать свои сообщения
      Вы не можете удалять свои сообщения
      Вы не можете голосовать в опросах
      Вы не можете прикреплять файлы к сообщениям
      Вы можете скачивать файлы