новый адрес
Ссылка на приватное зеркало всего за 1$. Внимание количество ограничено!!!

iTunes

1+1

iTunes

мы

iTunes

1

iTunes

Чернобыль

iTunes

Ральф против интернета

Лицензия

ПШазам

Лицензия

Оно 2

Лицензия

30
pack

Вам бонус

ВАЖНО

!!Акция!!

Alien_RageХит недели

RePack

Resident Evil 21

ИГРА 18+

pack

RePack

jed

!!Акция!!

Alien_Rage

RePack

fifa19

RePack

Assassins Creed: Odyssey

RePack

NEED FOR SPEED™ PAYBACK

3 сезон

9 сезон

Бесстыжие 9 сезон

Все сериалы

все сериалы на PB.wtf

RePack

FAR CRY 5
Ребята, катастрофически не хватает 1900р. для оплаты серверов за Октябрь (всвязи с блокировками трафик упал в 3 раза), 1-2р., выручайте.
  

Сага: Тень Кабала / SAGA - Curse of the Shadow (Джон Лойд / John Lyde) [2013 , США , фэнтези, боевик , HDRip] DVO pb.wtf

Сага: Тень Кабала через торрент pb.wtf

Размер: 1.46 GB | Добавлен: 6 лет 5 мес. назад | Торрент скачан:1929 раз
Скачать  

20-06-2013 19:32 Сага: Тень Кабала Скачать торрент  

Сага: Тень Кабала / SAGA - Curse of the Shadow


  • Год выпуска:2013
  • Страна: США
  • Жанр:фэнтези, боевик
  • Продолжительность: 01:45:13
  • Перевод:Любительский (двухголосый)

  • Субтитры: Нет
    • Режиссер: Джон Лойд / John Lyde
    • Продюсер: Джон Лойд / John Lyde, Джейсон Фэллер / Jason Faller, Кинан Гриффин / Kynan Griffin, Saad Al-Enezi, Джордж Нельсон / George Nelson
    • Сценарий:Джейсон Фэллер / Jason Faller, Кинан Гриффин / Kynan Griffin

  • В ролях:Даниэль Чачран (Nemyt), Ричард МакУильямс (Keltus), Пол Хант (Kullimon), Джеймс С. Моррис (Gyarmuck / Maggut), Ив Мауро (Tarsa), Дэнни Джеймс (Drennon), Клэр Нидерпрюэм (Mulva), Морган Мэйби (Virgin), Джеймс Гейсфорд (Kethku), Кайл Пол (Mulgrut), Кори Робинсон (Makor the Orc), Mel Crow (Madazok)
    • Описание:
      Война богов разорила землю, и оставшиеся в живых люди в отчаянии заключили соглашение с эльфами и гномами. Это положило конец войне, заставив орков и темных эльфов отступить в глубь пустоши. Однако данное соглашение, восстановив цивилизацию, возродило и древнее Зло. В темных углах таверн и в мрачных пещерах стал слышен шепот заговорщиков, известных как Тень...


    • Качество: HDRip
    • Формат: AVI
    • Видео кодек: XviD
    • Аудио кодек: AC3
    • Видео: XviD, 720x400 (16:9), 1588 kbps, 23,976 fps, 0,230 bpp
    • Аудио: AC3 / 5.1 / 48 kHz / 384 kbps / 16 bit

    General
    Complete name : D:ТорентыDragon.Lore.Curse.Of.The.Shadow.2013.L2.HDRip.1400MB.avi
    Format : AVI
    Format/Info : Audio Video Interleave
    File size : 1.46 GiB
    Duration : 1h 45mn
    Overall bit rate : 1 982 Kbps
    Writing application : VirtualDubMod 1.5.10.2 (build 2540/release)
    Writing library : VirtualDubMod build 2540/release

    Video
    ID : 0
    Format : MPEG-4 Visual
    Format profile : Advanced Simple@L5
    Format settings, BVOP : 2
    Format settings, QPel : No
    Format settings, GMC : No warppoints
    Format settings, Matrix : Default (MPEG)
    Codec ID : XVID
    Codec ID/Hint : XviD
    Duration : 1h 45mn
    Bit rate : 1 589 Kbps
    Width : 720 pixels
    Height : 400 pixels
    Display aspect ratio : 16:9
    Frame rate : 23.976 fps
    Color space : YUV
    Chroma subsampling : 4:2:0
    Bit depth : 8 bits
    Scan type : Progressive
    Compression mode : Lossy
    Bits/(Pixel*Frame) : 0.230
    Stream size : 1.17 GiB (80%)
    Writing library : XviD 1.2.1 (UTC 2008-12-04)

    Audio
    ID : 1
    Format : AC-3
    Format/Info : Audio Coding 3
    Mode extension : CM (complete main)
    Codec ID : 2000
    Duration : 1h 45mn
    Bit rate mode : Constant
    Bit rate : 384 Kbps
    Channel(s) : 6 channels
    Channel positions : Front: L C R, Side: L R, LFE
    Sampling rate : 48.0 KHz
    Bit depth : 16 bits
    Compression mode : Lossy
    Stream size : 289 MiB (19%)
    Alignment : Split accross interleaves
    Interleave, duration : 42 ms (1.00 video frame)
    Interleave, preload duration : 500 ms
    Сценарий: Джейсон Фэллер / Jason Faller, Кинан Гриффин / Kynan Griffin
    Продюсер: Джон Лойд / John Lyde, Джейсон Фэллер / Jason Faller, Кинан Гриффин / Kynan Griffin, Saad Al-Enezi, Джордж Нельсон / George Nelson
    Оператор: Аирк Тобаэр / Airk Thaughbaer
    Композитор: Пану Аалти / Panu Aaltio

    Мировая премьера: 18 июня 2013


    Скриншоты
    © Оформление by Vetalpb.wtf



  • Скачать Сага: Тень Кабала через торрент http://i6.imageban.ru/out/2013/06/20/40c3ae3e300f6bc8a8f1e1a8d3df1f15.jpg Скачать фильм Сага: Тень Кабала через торрент бесплантно в хорошем качестве Описание:Война богов разорила землю, и оставшиеся в живых люди в отчаянии заключили соглашение с эльфами и гномами. Это положило конец ... 9.7 10 64
    Info! Золотая раздача, скачанное не засчитывается.
    Торрент: Зарегистрирован [2013-06-20 19:32] · скачан: 1 929 раз
    Статус: √ проверено
    Размер: 1.46 GB
    Как cкачать? Как скачать Сага: Тень Кабала через торрент | qTorrent

    % Раздел Тема Автор DL S | L
    Фильмы 2013 (Звук TS, Cam, VO, DVO) [ 2 GB ] Сага: Тень Кабала / SAGA - Curse of the Shadow [2013 BDRip-AVC DVO] МАКС1 Скачать
    1 | 0


    Последний раз редактировалось: Ворон (2013-06-21 15:48), всего редактировалось 1 раз
    Отключить всю рекламу на сайте

    20-06-2013 20:08 Сага: Тень Кабала Скачать торрент  

    спасибоpb.wtf



    21-06-2013 00:44 Сага: Тень Кабала Скачать торрент  

    ух, шлачище какое
    А я сначала подумал про Мортал Комбат фильм =)) Был там такой перс)pb.wtf



    21-06-2013 00:58 Сага: Тень Кабала Скачать торрент  

    Только вот почему на спойлере написано "Сага Тень Кабала", а в названии топика "Сага - Проклятие Тени"? Где правда, брат? =)pb.wtf



    21-06-2013 03:26 Сага: Тень Кабала Скачать торрент  

    ДА ! скачал глянул! фильм полное г..... !pb.wtf



    21-06-2013 07:19 Сага: Тень Кабала Скачать торрент  

    на 2тором скрине КАБАЛ))) pb.wtf



    21-06-2013 07:52 Сага: Тень Кабала Скачать торрент  

    malder писал(а):

    ДА ! скачал глянул! фильм полное г..... !

    полностью согласен!!!!!!!! отстойник pb.wtf



    21-06-2013 08:54 Сага: Тень Кабала Скачать торрент  

    не согласен кино очь даже неплохо снято - я видел и похуже фентези стильpb.wtf



    21-06-2013 13:52 Сага: Тень Кабала Скачать торрент  

    на 2 скрине алхимик с Доты2pb.wtf



    21-06-2013 16:30 Сага: Тень Кабала Скачать торрент  

    это не очередной шедевр фирмы ализиум ?pb.wtf



    27-06-2013 04:27 Сага: Тень Кабала Скачать торрент  

    народ, а озвучки профессиональной не будет?pb.wtf



    30-06-2013 01:43 Сага: Тень Кабала Скачать торрент  

    Для такого бюджета, фильм очень даже не плох! Посмотреть можно...pb.wtf



      Дорогой пользователь! Огромная просьба, поблагодарите релизера, оцените раздачу и оставьте свои комментарий, если Вы скачали Сага: Тень Кабала через торрент бесплатно! Внесите свою лепту в развитие PiratBit!
      Комментировать посты могут только пользователи прошедшие не сложную регистрацию
      Показать сообщения:    

      Сага: Тень Кабала через торрент
      Скачать бесплатно Сага: Тень Кабала
      Сага: Тень Кабала скачать торрент
      Сага: Тень Кабала смотреть онлайн
      Cкачать фильм Сага: Тень Кабала бесплатно
      Сага: Тень Кабала скачать торрент в хорошем качестве
      Сага: Тень Кабала смотреть онлайн бесплатно в хорошем качестве


      Вы не можете начинать темы
      Вы не можете отвечать на сообщения
      Вы не можете редактировать свои сообщения
      Вы не можете удалять свои сообщения
      Вы не можете голосовать в опросах
      Вы не можете прикреплять файлы к сообщениям
      Вы можете скачивать файлы