1 сезон

3 сезон

iTunes

1

Line

MVO

iTunes

13

1 сезон

RePack

30

Deluxe

pack

Лицензия

ВАЖНО

ИГРА 18+

pack

RePack

MK11

RePack

jed

RePack

fifa19

RePack

RDR2

RePack

NEED FOR SPEED™ PAYBACK

4 сезон

9 сезон

Бесстыжие 9 сезон

Все сериалы

все сериалы на PB.wtf

RePack

FAR CRY 5

Anonymous, доброе утро, мы катастрофически не успеваем собрать деньги на оплату серверов, помогите нам пожалуйста 5,10,15р., для нас важна любая помощь . В качестве благодарности мы отключим Вам всю рекламу на сайте (укажите свой ник в строку Ваше имя)!

×
  
Magnet ссылка

Улётный рейс / Low Cost (Морис Бартелеми / Maurice Barthélémy) [2011, комедия, DVD9] R5 pb.wtf

Улётный рейс через торрент pb.wtf

Размер: 4.78 GB | Добавлен: 8 лет 1 мес. назад | Торрент скачан:119 раз
Скачать  

20-06-2013 20:46 Улётный рейс Скачать торрент  


Улётный рейс / Low Cost
«Одно дело купить, совсем другое - улететь, а уж вернуться...»
Страна: Франция
Студия: Airborne Films, Alvy Productions, Angoa-Agicoa, Banque Populaire Images 11, Canal+ [fr], Cinémage 5, Cofimage 22, France 2 Cinéma, France Télévision, Les Films du Kiosque, Procirep, TPS Star, Uni Étoile 8, Wild Bunch
Жанр: комедия
Год выпуска: 2011
Мировая премьера: 12 апреля 2011
Российская премьера: 4 апреля 2013
Дата выхода DVD: 23 мая 2013
Продолжительность: 01:25:36
Перевод: Профессиональный (дублированный) [Лицензия]
Cубтитры: нет
Оригинальная аудиодорожка: нет
Режиссер: Морис Бартелеми / Maurice Barthélémy
В ролях: Жан-Поль Рув, Жюдит Годреш, Жерар Дармон, Этьен Шико, Максим Лефрансуа, Венсан Лакост, Кристоф Флюдер, Франсуа Бюрелу, Филипп Вие, Анн Бенуа
Описание: Очередной рутинный рейс авиалиний Лобуд Джет. Низкая стоимость билетов, никакого обслуживания, полный салон бедных туристов и коммивояжеров. В привычный ритм жизни вплетается разорение туроператора, который организовал рейс. И как водится, это было началом полного конца. Пираты, перестрелки, бешеные гонки на выживание — самая малость того, что ожидает бедных пассажиров…
Бонусы: нет

Релиз группы:
Качество: DVD9 R5
Формат: DVD-Video
Видео кодек: MPEG2
Аудио кодек: AC3
Видео: PAL 16:9 (720x576(0.723)) MPEG Video, 25,000 кадр/сек, 7494 Кбит/сек
Аудио: Russian (Dolby AC3, 6 ch) 448 Кбит/сек, 48,0 КГц



Title: Uletnyj.rejs.2011.DVD9
Size: 4.78 Gb ( 5 012 314,00 KBytes ) - DVD-9
Enabled regions: 1, 2, 3, 4, 5, 6, 7, 8

VTS_01 :
Play Length: 00:00:16
Video: PAL 16:9 (720x576) VBR, Auto Letterboxed
Audio:
Russian (Dolby AC3, 2 ch)

VTS_02 :
Play Length: 01:25:36
Video: PAL 16:9 (720x576) VBR, Auto Letterboxed
Audio:
Russian (Dolby AC3, 6 ch)

* Menus Information *

VIDEO_TS Menu
Video:
PAL 4:3 (720x576) VBR
Auto Pan&Scan, Auto Letterboxed
Russian Language Unit :
Title Menu

VTS_01 Menu
Video:
PAL 4:3 (720x576) VBR
Auto Pan&Scan, Auto Letterboxed
Language Unit :
Subpicture Menu
Angle menu
Language Unit :

Language Unit :
Subpicture Menu
Language Unit :
Subpicture Menu
Language Unit :
Subpicture Menu

VTS_02 Menu
Video:
PAL 16:9 (720x576) VBR
Auto Letterboxed
Audio:
Not specified (Dolby AC3, 2 ch)
Russian Language Unit :
Root Menu
Chapter (PTT) Menu
Общее
Полное имя : M:Новинки 2013Uletnyj.rejs.2011.DVD9VIDEO_TSVTS_02_1.VOB
Формат : MPEG-PS
Размер файла : 1024 Мбайт
Продолжительность : 17 м.
Режим общего битрейта : Переменный
Общий поток : 8103 Кбит/сек

Видео
Идентификатор : 224 (0xE0)
Формат : MPEG Video
Версия формата : Version 2
Профиль формата : Main@Main
Параметр BVOP формата : Да
Параметр матрицы формата : Выборочная
Параметр GOP формата : M=3, N=15
Продолжительность : 17 м.
Вид битрейта : Переменный
Битрейт : 7494 Кбит/сек
Максимальный битрейт : 8000 Кбит/сек
Ширина : 720 пикселей
Высота : 576 пикселей
Соотношение сторон : 16:9
Частота кадров : 25,000 кадров/сек
Стандарт вещания : PAL
Цветовое пространство : YUV
Субдискретизация насыщенности : 4:2:0
Битовая глубина : 8 бит
Тип развёртки : Прогрессивная
Метод сжатия : С потерями
Бит/(Пиксели*Кадры) : 0.723
TimeCode_FirstFrame : 00:00:00:00
TimeCode_Source : Group of pictures header
Размер потока : 947 Мбайт (92%)

Аудио
Идентификатор : 189 (0xBD)-128 (0x80)
Формат : AC-3
Формат/Информация : Audio Coding 3
Расширение режима : CM (complete main)
Параметр Endianness формата : Big
Режим смешивания : DVD-Video
Продолжительность : 17 м.
Вид битрейта : Постоянный
Битрейт : 448 Кбит/сек
Каналы : 6 каналов
Расположение каналов : Front: L C R, Side: L R, LFE
Частота : 48,0 КГц
Битовая глубина : 16 бит
Метод сжатия : С потерями
Размер потока : 56,6 Мбайт (6%)










pb.wtf



Скачать Улётный рейс через торрент http://s019.radikal.ru/i606/1306/e7/1612099feb62.jpg Скачать фильм Улётный рейс через торрент бесплантно в хорошем качестве Описание: Очередной рутинный рейс авиалиний Лобуд Джет. Низкая стоимость билетов, никакого обслуживания, полный салон бедных туристов и ... 9.3 10 12
Info! Золотая раздача, скачанное не засчитывается.
Торрент: Зарегистрирован [2013-06-20 20:46] · скачан: 119 раз
Статус: √ проверено
Размер: 4.78 GB
Как cкачать? Как скачать Улётный рейс через торрент | UTorrent

28-11-2019 20:33  

Отключить всю рекламу на сайте

    Дорогой пользователь! Огромная просьба, поблагодарите релизера, оцените раздачу и оставьте свои комментарий, если Вы скачали Улётный рейс через торрент бесплатно! Внесите свою лепту в развитие PiratBit!
    Комментировать посты могут только пользователи прошедшие не сложную регистрацию
    Показать сообщения:    

    Улётный рейс через торрент
    Скачать бесплатно Улётный рейс
    Улётный рейс скачать торрент
    Улётный рейс смотреть онлайн
    Cкачать фильм Улётный рейс бесплатно
    Улётный рейс скачать торрент в хорошем качестве
    Улётный рейс смотреть онлайн бесплатно в хорошем качестве


    Вы не можете начинать темы
    Вы не можете отвечать на сообщения
    Вы не можете редактировать свои сообщения
    Вы не можете удалять свои сообщения
    Вы не можете голосовать в опросах
    Вы не можете прикреплять файлы к сообщениям
    Вы можете скачивать файлы